<?xml version="1.0" standalone="no"?>
<!DOCTYPE svg PUBLIC "-//W3C//DTD SVG 1.1//EN" "http://www.w3.org/Graphics/SVG/1.1/DTD/svg11.dtd" >
<svg xmlns="http://www.w3.org/2000/svg">
<metadata></metadata>
<defs>
<font id="openweb_iconsregular" horiz-adv-x="1024" >
<font-face units-per-em="1024" ascent="819" descent="-205" />
<missing-glyph horiz-adv-x="500" />
<glyph unicode="&#xd;" />
<glyph unicode="&#x2000;" horiz-adv-x="512" />
<glyph unicode="&#x2001;" />
<glyph unicode="&#x2002;" horiz-adv-x="512" />
<glyph unicode="&#x2003;" />
<glyph unicode="&#x2004;" horiz-adv-x="341" />
<glyph unicode="&#x2005;" horiz-adv-x="256" />
<glyph unicode="&#x2006;" horiz-adv-x="170" />
<glyph unicode="&#x2007;" horiz-adv-x="170" />
<glyph unicode="&#x2008;" horiz-adv-x="128" />
<glyph unicode="&#x2009;" horiz-adv-x="204" />
<glyph unicode="&#x200a;" horiz-adv-x="56" />
<glyph unicode="&#x202f;" horiz-adv-x="204" />
<glyph unicode="&#x205f;" horiz-adv-x="256" />
<glyph unicode="&#x25fc;" horiz-adv-x="500" d="M0 0v0v0v0v0z" />
<glyph unicode="&#xf000;" d="M820 800q-1 -4 -3.5 -11t-12 -25t-22.5 -32.5t-36.5 -29t-51 -20t-69 1t-89.5 27.5q-30 14 -33 16l-334 -137l335 -164q26 11 67.5 31.5t78 50.5t61 61t44.5 64.5t31.5 63t19.5 53t11 36.5zM503 727h1h-1zM153 517v-348l312 -169v358zM847 517l-312 -159v-358l312 169 v348z" />
<glyph unicode="&#xf001;" d="M271 799q-71 0 -121 -50t-50 -120v-459q0 -71 50 -121t121 -50h458q71 0 121 50t50 121v459q0 70 -50 120t-121 50h-458zM501.5 464q29.5 0 50.5 -21t21 -50.5t-21 -50.5t-50.5 -21t-50.5 21t-21 50.5t21 50.5t50.5 21z" />
<glyph unicode="&#xf002;" d="M272 798q-72 0 -122 -50.5t-50 -121.5v-456q0 -72 50 -122t122 -50h456q72 0 122 50t50 122v456q0 71 -50 121.5t-122 50.5h-456zM414 735q64 0 117 -30h1v0q60 -32 95.5 -91.5t34.5 -127.5v0v-1v0q1 -68 -35 -128l211 -210l-87 -87l-210 210q-31 -18 -65 -27h-1h-1 q-90 -24 -177 21q-63 32 -98 91v1h-1q-44 71 -34.5 156.5t67.5 144.5q0 1 1 1v0q35 38 83 57.5t99 19.5zM414 660q-78 0 -128 -53v-1h-1q-39 -40 -45.5 -101.5t22.5 -109.5h1v-1q24 -41 69 -64q61 -31 124 -14h1q55 13 93.5 62.5t37.5 106.5v1q0 46 -25.5 88.5t-66.5 64.5 l-1 1q-36 20 -81 20z" />
<glyph unicode="&#xf003;" d="M271 798q-71 0 -121 -50t-50 -121v-459q0 -70 50 -120t121 -50h458q71 0 121 50t50 120v459q0 71 -50 121t-121 50h-458zM501.5 688q120.5 0 205.5 -85.5t85 -205.5q0 -79 -39 -146t-106 -106t-145 -39q-121 0 -206 85.5t-85 205.5t85 205.5t205.5 85.5zM502 600 q-84 0 -144 -59.5t-60 -143.5t60 -143.5t144 -59.5t143.5 59.5t59.5 143.5q0 55 -27.5 102t-74 74t-101.5 27zM501.5 462q29.5 0 50.5 -21t21 -50q0 -15 -5.5 -28t-15 -22.5t-23 -15.5t-27.5 -6q-30 0 -51 21t-21 50.5t21 50.5t50.5 21z" />
<glyph unicode="&#xf004;" d="M164 786q-22 0 -37 -15t-15 -36v-673q0 -21 15 -36t37 -15h672q22 0 37 15t15 36v673q0 21 -15 36t-37 15h-672zM482.5 703q119.5 0 204.5 -85t85 -204v-290l-289 1q-120 0 -204.5 84.5t-84.5 204t84.5 204.5t204 85zM482.5 576q-67.5 0 -115 -47.5t-47.5 -114.5 q0 -34 13 -64t34.5 -51.5t52 -34.5t63.5 -13q67 0 114.5 47.5t47.5 115t-47.5 115t-115 47.5z" />
<glyph unicode="&#xf005;" d="M500 797q-109 0 -201 -53.5t-145.5 -145.5t-53.5 -201t53.5 -201t145.5 -145t201 -53l400 -1v400q0 81 -32 155t-85.5 128t-127.5 85.5t-155 31.5zM500 621q93 0 159 -65.5t66 -158.5t-66 -159t-159 -66t-159 66t-66 159t66 158.5t159 65.5z" />
<glyph unicode="&#xf006;" d="M271 798q-71 0 -121 -50t-50 -121v-458q0 -82 64 -134q47 -37 107 -37h458q71 0 121 50t50 121v458q0 71 -50 121t-121 50h-458zM672 673q27 0 49 -13t35 -35t13 -48q0 -40 -28.5 -68.5t-68.5 -28.5q-35 0 -62 23l-186 -95v-8q0 -8 -1 -15l184 -94q28 25 65 25 q40 0 68.5 -28.5t28.5 -68.5t-28.5 -68t-68.5 -28t-68 28t-28 68v6l-191 97q-25 -19 -57 -19q-40 0 -68.5 28.5t-28.5 68.5t28.5 68t68.5 28q35 0 62 -23l186 95v9q0 40 28 68t68 28z" />
<glyph unicode="&#xf007;" d="M750.5 798q-58.5 0 -99.5 -41t-41 -100q0 -6 1 -12l-271 -138q-39 33 -91 33q-28 0 -54 -11t-45 -29.5t-30 -44.5t-11 -55q0 -58 41 -99t99 -41q47 0 84 27l277 -141v-8q0 -38 19 -70.5t51 -51t71 -18.5q58 0 99 41t41 99t-41 99t-99 41q-55 0 -95 -36l-268 136 q2 11 2 22q0 6 -1 12l271 138q39 -33 91 -33q38 0 70 19t51 51t19 70q0 59 -41 100t-99.5 41z" />
<glyph unicode="&#xf008;" d="M504 796q-16 0 -33 -1q-71 -5 -130 -31q-38 -17 -77 -44q-91 -65 -133 -171q-16 -39 -17 -45q-26 -92 -4 -191.5t78 -166t143 -112.5q72 -39 171 -38t178 41q90 46 152 139q67 100 67 224q0 111 -67 216q-51 81 -133.5 130.5t-194.5 49.5zM470 606h54q16 0 29 -9.5 t18 -24.5l106 -320q7 -20 -2.5 -38.5t-28.5 -24.5q-8 -2 -16 -2q-16 0 -29 9t-18 25l-23 73h-120l-23 -73q-5 -15 -18 -24.5t-29 -9.5q-8 0 -15 2q-20 6 -29.5 24t-3.5 38l101 320q5 16 18 25.5t29 9.5z" />
<glyph unicode="&#xf009;" d="M258 849q-76 0 -129.5 -53.5t-53.5 -129.5v-484q0 -88 67 -142q51 -41 116 -41h484q76 0 129.5 53.5t53.5 129.5v484q0 50 -24.5 92t-66.5 66.5t-92 24.5h-484zM221 723q116 0 222.5 -44.5t188.5 -126t126 -188.5t44 -222h-116q0 92 -35.5 177.5t-101 151t-150.5 101 t-178 35.5v116zM221 527q77 0 147.5 -29.5t125 -83.5t83.5 -125t29 -147h-113q0 53 -21 103.5t-58.5 88.5t-88 59t-104.5 21v113zM299 301h1h1q33 0 56 -23.5t23 -56.5t-23 -56t-56 -23t-56.5 23t-23.5 56t22.5 56t55.5 24z" />
<glyph unicode="&#xf00a;" d="M75 849v-170q135 0 260 -52t220.5 -147.5t147.5 -220.5t52 -260h170q0 169 -64.5 325t-184.5 275.5t-276 184.5t-325 65zM75 562v-165q79 0 152.5 -30.5t129.5 -86.5t86 -129t30 -152h165q0 112 -42.5 215.5t-122 182.5t-183 122t-215.5 43zM191.5 232 q-48.5 0 -82.5 -34.5t-34 -82.5t34 -82t83 -34q31 0 58 15.5t42.5 42t15.5 58.5q0 48 -34 82.5t-82.5 34.5z" />
<glyph unicode="&#xf00b;" d="M256 798q-42 0 -78 -21t-57 -57t-21 -78v-488q0 -64 46 -110t110 -46h488q64 0 110 46t46 110v488q0 32 -12.5 60.5t-33.5 49.5t-49.5 33.5t-60.5 12.5h-488zM623 712q15 0 26 -10v-1h1l149 -150q12 -11 12 -27q0 -15 -11 -26t-27 -11t-27 11l-17 17l-116 -115 q14 -42 4 -86.5t-43 -76.5l-238 239q21 21 48.5 33t56 13t57.5 -7l116 115l-18 18v1q-11 11 -11 25q0 27 25 36q7 2 13 2zM188 412q116 1 203 -72l-129 -130l-1 -1q-10 -11 -10 -25q0 -16 11 -27t26 -11t26 10l1 1l128 128q71 -97 59 -217h-209q-33 0 -60 16t-43 43.5 t-16 59.5v225h14z" />
<glyph unicode="&#xf00c;" d="M605 797q-12 0 -20.5 -8.5t-8.5 -20.5v-271q0 -8 4 -14.5t10.5 -10.5t14.5 -4h277q12 0 20.5 8.5t8.5 20.5v271q0 12 -8.5 20.5t-20.5 8.5h-277zM428 767q-42 -1 -70.5 -30.5t-28.5 -70.5v-318q0 -42 29.5 -71.5t71.5 -29.5h318q42 0 71.5 29.5t29.5 71.5v77h-244 q-19 0 -36 9.5t-26.5 26t-9.5 36.5v270h-103h-1h-1zM212 662q-25 0 -47.5 -9.5t-39 -26t-26.5 -39.5t-10 -47v-420q0 -51 36 -87t87 -36h421q51 0 87 36t36 87v84h-8h-318q-29 0 -56 11.5t-46.5 30.5t-30.5 46t-11 56v314h-74z" />
<glyph unicode="&#xf00d;" d="M585 738l-121 -60v-605v-1q-105 14 -174 65.5t-69 118.5q0 64 62 114t159 66v77q-97 -11 -175 -48t-122.5 -91.5t-44.5 -117.5q0 -98 104 -172t260 -87l121 57v684zM606 513v-77q71 -12 125 -43l-65 -37l234 -51l-17 173l-62 -35q-91 55 -215 70z" />
<glyph unicode="&#xf00e;" d="M271 797q-71 0 -121 -50t-50 -121v-459q0 -70 50 -120t121 -50h458q71 0 121 50t50 120v459q0 35 -13.5 66.5t-36.5 54.5t-54.5 36.5t-66.5 13.5h-458zM500 636q72 0 132 -39q18 -12 18 -33q0 -11 -5 -20t-14 -14t-19 -5q-12 0 -22 7q-41 27 -90 27q-38 0 -71 -16 t-55.5 -44t-30.5 -63q-1 -3 -1 -4q-2 -5 -5.5 -10t-8 -8.5t-10.5 -5.5t-13 -3h-129v77h100q26 69 87 111.5t137 42.5zM500 490q38 0 65 -27t27 -65t-27 -65t-65 -27q-25 0 -46.5 12t-34 33.5t-12.5 46.5q0 38 27.5 65t65.5 27zM695 390h129v-77h-101q-26 -68 -87 -111 t-136 -43q-72 0 -132 40q-17 12 -17 32q0 16 11 27.5t27 11.5q12 0 22 -7q40 -27 89 -27q37 0 70 16t56 44t31 63v1q1 2 1 3q3 11 13.5 19t23.5 8z" />
<glyph unicode="&#xf00f;" d="M500 732q-117 0 -211 -65.5t-134 -171.5h-155v-119h200q10 0 19 3.5t16.5 9t12.5 13t8 15.5q0 4 1 7q20 82 88 136t155 54q77 0 140 -43q15 -10 33 -10q24 0 41.5 17.5t17.5 42.5q0 33 -29 50q-92 61 -203 61zM500 507q-39 0 -72 -19t-52 -52t-19 -72q0 -59 42 -100.5 t101 -41.5t101 41.5t42 100.5t-42 101t-101 42zM801 353q-10 0 -19.5 -3.5t-17 -9.5t-12.5 -13.5t-8 -15.5q0 -1 -1 -5v-1q-20 -82 -88 -136t-155 -54q-75 0 -137 41q-15 10 -34 10q-24 0 -41.5 -17t-17.5 -42q0 -32 26 -49q93 -61 204 -62q117 0 211 66t134 172h155v119 h-199z" />
<glyph unicode="&#xf010;" d="M251 798h-4h-8q-1 0 -3 -1h-4t-4 -1q-4 0 -7 -1q-2 0 -4 -1q-2 0 -5 -1l-6 -2q-1 0 -3 -1q-2 0 -4 -1q-3 -1 -6.5 -2.5t-6.5 -3.5q-1 0 -1.5 -0.5l-0.5 -0.5h-1h-1l-6 -4l-6 -4q-2 -1 -3 -2q-3 -1 -5 -3t-3 -2q-2 -1 -4 -3q-13 -11 -23 -24q-2 -3 -4 -5q-4 -7 -8 -13 q-1 -2 -2 -3q-2 -3 -3 -6l-2 -4q-1 -3 -3 -7q-2 -5 -3 -10l-4 -14q-2 -12 -3 -23v-8v-498v-8q0 -5 1 -11q1 -4 1 -8q1 -5 3 -11q2 -9 5 -17q2 -3 3 -7q1 -2 2 -3q1 -3 3 -7q9 -16 21 -29l3 -3q7 -8 16 -15l6 -4q7 -5 15 -10q2 -1 3 -1q2 -1 3 -2h1l10 -4q1 -1 3 -2q2 0 4 -1 q3 -1 7 -2q1 -1 3 -1l8 -2q2 0 3 -1q4 0 8 -1q6 0 11 -1h8h498h8q5 1 11 1q4 1 8 1q1 1 3 1l8 2q9 2 17 6q3 1 5.5 2t4.5 2q12 6 22 13l6 4q9 7 16 15l3 3q13 14 22 32q2 4 4 7q1 4 3 7q3 8 5 17q1 4 2 7.5t1 7.5q1 2 1 4q0 5 0.5 9.5t0.5 9.5v498v4q0 10 -2 19q0 4 -1 8 l-4 14q-2 9 -6 17l-2 4q-2 4 -5 9l-8 12v1q-2 2 -4 5q-10 13 -23 24q-2 2 -5.5 4t-6.5 4q-1 1 -3 2l-6 4l-6 4q-4 1 -7 3q-8 4 -17 6q-3 1 -7 2t-7.5 2t-7.5 1q-6 1 -11 2h-8h-4h-498zM393 644q12 0 24 -1.5t20.5 -3t22 -5.5t18 -5.5t19 -7t16.5 -5.5q35 -13 54 -17.5 t51.5 -2t69.5 18.5q18 8 36.5 4t25.5 -21q5 -13 3.5 -24.5t-9 -22t-19.5 -15.5q-64 -27 -122 -27q-17 0 -35 4t-30 8.5t-29.5 11.5t-25.5 10q-26 9 -39.5 13t-35 5.5t-43.5 -5t-49 -21.5q-12 -6 -24 -7.5t-23 3t-17 15.5q-6 12 -5.5 24t7 23t17.5 17q63 34 122 34zM387 464 h3q11 0 23.5 -1.5t20.5 -3t21 -5.5t18 -5.5t19 -6.5t17 -6q35 -13 54.5 -17.5t53.5 -1.5t73 20q17 9 35.5 5t26.5 -20q7 -18 0 -36t-24 -26q-68 -30 -129 -30q-12 0 -24 1.5t-21.5 4t-20.5 6.5t-19 7.5t-18.5 7.5t-17.5 6q-34 13 -51.5 17t-48 -0.5t-65.5 -22.5 q-16 -10 -35 -7.5t-28 18.5q-9 17 -3.5 35.5t22.5 27.5q61 33 118 33zM384 286q11 0 23 -1.5t20.5 -3t21.5 -5.5t18 -6t18.5 -7t16.5 -6q22 -8 33.5 -11.5t31.5 -7t36 -2t38.5 7.5t47.5 17q12 6 24 7t22.5 -4.5t15.5 -16.5q8 -18 1.5 -35.5t-23.5 -25.5q-73 -34 -137 -34 q-17 0 -35 4t-30 8.5t-29.5 11.5t-25.5 10q-32 12 -49.5 16t-47 0.5t-63.5 -20.5q-17 -9 -35.5 -6.5t-27.5 19.5q-5 12 -4.5 23.5t7.5 22t18 16.5q56 28 109 29h5z" />
<glyph unicode="&#xf011;" d="M455 798q-22 0 -40 -8q-54 -21 -55 -86q-1 -52 36 -107l1 -1q-22 46 -13 85t45 54q42 16 97 -9t90 -78q18 -26 25.5 -53.5t4.5 -51t-16 -39.5q19 12 29 32.5t10.5 45t-8.5 52.5t-28 56q-33 49 -82.5 78.5t-95.5 29.5zM505 656q-19 0 -34 -12q-12 -8 -18.5 -20t-7 -24.5 t3.5 -25.5l-104 -76q7 -6 12 -13t8 -15l104 76q16 -13 36.5 -13t37.5 12q21 15 25 40t-11 46q-19 25 -49 25h-3zM820 643q-23 0 -47 -12q-47 -24 -78 -83q30 41 68.5 51t68.5 -15q22 -19 31.5 -53.5t4 -75t-24.5 -77.5q-14 -25 -32 -44q1 -1 1 -2q10 -8 18 -19q34 25 57 69 q35 65 31.5 135.5t-43.5 104.5q-24 21 -55 21zM298 608q-49 0 -100 -32q-63 -38 -95.5 -100.5t-15.5 -112.5q18 -55 83 -59q53 -3 109 31l1 1q-47 -20 -85.5 -9.5t-51.5 47.5q-14 43 13.5 96.5t81.5 86.5q42 25 82 27t63 -20q-24 43 -82 44h-3zM525 512q-17 -4 -34 0v-87 q-10 -3 -19 -9q-21 -15 -25 -40t11 -46q12 -17 32 -23t38 1l67 -92q-8 -9 -11 -21q-1 -3 -1 -4v-1.5v-0.5q0 -1 -0.5 -1h-0.5v-1v-1v-1.5v-1.5v-1v-1v-1v-4v-1v-2v-1v-1v-1q0 -1 1 -1v-2v-1v-1v0q0 -1 1 -2v-1v-1v-1q3 -9 9 -18q15 -20 40.5 -24t46 11t24.5 40t-11 46 q-18 25 -49 25q-11 0 -21 -3l-67 91q13 16 13.5 36.5t-11.5 37.5q-13 17 -33 23v87zM725 498q-19 -1 -35 -12q-26 -19 -25 -51l-84 -27q9 -16 11 -33l52 17l32 8q15 -21 40.5 -25t46 11t24.5 40.5t-11 45.5q-18 25 -49 26h-1h-1zM287 497q-19 -1 -35 -12q-21 -15 -25 -40 t11 -46t40.5 -25t46 11t24.5 40t-11 46q-18 25 -49 26h-1h-1zM728 335q-7 -1 -15 -1q-52 -7 -101 -52v0q27 18 55 23t50.5 -4t35.5 -31q22 -39 5 -97t-64 -101q-36 -32 -75 -41.5t-66 7.5q20 -23 50.5 -28t66 8.5t68.5 42.5q54 50 74 117t-6 113q-24 44 -78 44zM445 309 l-38 -54q16 -7 28 -20l39 54q-17 7 -29 20zM266 290h-5q-10 -1 -19 -2q-20 -3 -36 -11.5t-26.5 -23t-15.5 -32.5q-12 -51 26.5 -110t105.5 -91q60 -29 112 -20.5t71 50.5q-22 -24 -61 -26t-84 19q-57 27 -90 78t-22 95q8 37 46 51.5t86 -0.5q0 1 -1 1q-45 21 -87 22z M371 239q-19 0 -34 -11q-21 -15 -25 -40.5t11 -46t40 -24.5t46 11q17 12 23 32h124h5l-2 22q0 6 1 13h-128q-3 10 -9 19l-2 2l-1 1v1l-2 2q-1 0 -1 1l-1.5 1.5l-1 1t-1.5 0.5l-1 1l-2 2q-1 1 -2 1l-1 1h-1q0 1 -2 2q-1 0 -1 1q-2 0 -2.5 0.5l-1.5 1.5q-3 1 -4 1q-1 1 -2 1 q-10 3 -19 3h-1.5h-1.5z" />
<glyph unicode="&#xf012;" d="M635 783q-8 0 -68 -29.5t-97 -53.5q-27 -19 -37.5 -20t-45.5 12q-46 17 -52 13.5t-6 -27t-11 -75.5t-46.5 -129t-44 -103t-5 -77.5t25 -94.5t56.5 -77.5t66 -56t77 -45t54 -23.5t58.5 26t91 58t67 66.5t37 55t19 66t0 93.5t-44.5 125.5t-56.5 142t-25.5 109.5 q-2 26 -7 38q3 1 4 3q-1 0 -5 -1q-2 4 -4 4z" />
<glyph unicode="&#xf013;" d="M520 798q-93 -2 -175 -43q-65 -33 -115.5 -88.5t-76.5 -123.5q56 16 110 -11q30 57 76 94q76 63 174 66q55 3 108.5 -16t95.5 -55q71 -60 94 -154q26 -7 42 -30t12 -48q-3 -22 -17.5 -38.5t-35.5 -21.5q-15 -50 -32 -78q-31 -55 -83.5 -93t-114.5 -50q-85 -17 -167 16 q-49 20 -88.5 56t-63.5 83q-52 -27 -110 -11q48 -125 164 -196q41 -25 85 -39q67 -22 139.5 -19t137.5 30q43 18 81 46t69 64t52 78q62 120 37 255q-24 130 -122 220q-87 82 -204 101q-35 6 -72 6zM192 516q-13 -1 -27 -3q-51 -12 -76 -59q-18 -31 -12 -79q5 -26 21.5 -48.5 t40.5 -34.5q36 -19 78.5 -10t67.5 42q35 42 23 100q-6 28 -25.5 51t-46.5 33q-21 8 -44 8zM451 478q-11 0 -22 -3q-21 -6 -37 -23t-20 -38q-10 -40 17 -73q28 -33 70 -29q37 1 60.5 32.5t14.5 66.5q-4 29 -29 48.5t-54 18.5zM640 461q-7 0 -16 -1q-21 -6 -35.5 -24 t-14.5 -41q0 -21 13.5 -40t34.5 -25q31 -9 57 9q30 20 29 56q0 20 -11.5 37.5t-30.5 24.5q-11 5 -26 4zM794 439q-8 0 -15 -2q-12 -4 -22 -18q-10 -15 -6 -34t19 -28q14 -9 31 -6.5t27 15.5q12 13 10.5 32.5t-15.5 30.5q-11 10 -29 10zM871 54l-13 -53h8l6 25q1 2 1 4v3 q1 -1 2 -3q0 -1 1 -3l15 -27l14 26l2 4q0 1 1 3v-1v-2q1 -3 1 -4l6 -25h9l-14 53l-16 -32q0 -1 -1 -1q-2 -4 -2 -6q-1 2 -2 5q-1 1 -1 2zM814 52v-7h15v-44h9v44h15v7h-39z" />
<glyph unicode="&#xf014;" d="M198 595q-29 0 -29 -29v-136h-140q-29 0 -29 -29v-21q0 -29 29 -29h140v-135q0 -6 3 -11t8 -8t11 -3h107q2 0 4.5 1.5t5 4.5t2.5 7v49h-54q-8 0 -12.5 3t-6 8t-1.5 14v227q0 9 1.5 14t6 8t12.5 3h54v50q0 5 -4.5 8.5t-7.5 3.5h-91h-9zM702 595q-1 0 -3 -1l-4 -2 t-3.5 -3.5t-1.5 -5.5v-50h54q12 0 16 -6t4 -19v-227q0 -9 -1.5 -14t-6 -8t-12.5 -3h-54v-49q0 -6 4.5 -9.5t7.5 -3.5h107q9 0 15.5 6.5t6.5 15.5v135h140q29 0 29 29v21q0 29 -29 29h-140v136q0 29 -29 29h-9h-91zM280 500q-3 0 -5.5 -1.5t-4 -4t-1.5 -6.5v-191q0 -3 0.5 -5 t2.5 -3.5t4 -2.5t4 -1h220v54l-54 54l54 53v54h-220zM533 500v-54l-54 -53l54 -54v-54h187q5 0 8 3.5t3 8.5v191q0 5 -3 8.5t-8 3.5h-187zM382.5 430q14.5 0 24.5 -10.5t10 -25t-10 -24.5t-25 -10q-9 0 -17.5 4.5t-13 12.5t-4.5 18q0 14 10.5 24.5t25 10.5zM617.5 430 q14.5 0 25 -10.5t10.5 -25t-10.5 -24.5t-25 -10t-24.5 10t-10 24.5t10 25t24.5 10.5z" />
<glyph unicode="&#xf015;" d="M0 733q3 -116 63.5 -236.5t158 -219.5t217.5 -169q-42 -33 -87.5 -55.5t-93.5 -35.5v-5h-1v-9q42 5 83 16q1 0 2.5 0.5t2.5 0.5q77 18 155 55q27 -14 51 -24q99 -45 204 -54v10v5q-101 25 -190 97q119 69 215.5 167.5t156.5 219t63 237.5l-130 -50l-2 -1l-43 -14h-1 l-129 -39q1 -12 1 -22q0 -109 -52 -229t-141 -212q-86 92 -136.5 210t-50.5 225q0 13 1 23l-130 38h-1l-41 15l-2 1z" />
<glyph unicode="&#xf016;" d="M148 798l64 -720l288 -80l288 79l64 721h-704zM279 650h221h221l-8 -88h-213h-125l8 -90h117h205l-24 -271l-181 -51l-181 51l-13 141h89l7 -73l98 -27l98 27l11 114h-109h-197z" />
<glyph unicode="&#xf017;" d="M190 798l-30 -149h604l-19 -96h-604l-30 -148h604l-33 -169l-244 -81l-211 81l15 73h-149l-35 -178l349 -133l402 133l53 268l11 54l69 345h-752z" />
<glyph unicode="&#xf018;" d="M-33 798l132 -132h1h273l96 -97l-141 -141l-97 96v75h-132v-130l229 -229l-93 -93l149 -149h226h423l-132 131h-193h-269l-110 111l47 46l91 -91h188l-185 185l47 48l185 -185v187l-91 91l46 47l-229 230h-226h-235zM752 662l-94 -93l110 -110v-263h133v317z" />
<glyph unicode="&#xf019;" d="M500 797l-400 -202v-133l400 202l400 -202v133zM500 565l-400 -202v-133l400 202l400 -202v133zM500 333l-400 -202v-133l400 202l400 -202v133z" />
<glyph unicode="&#xf020;" d="M498.5 779.5q-2.5 -0.5 -161.5 -92.5l-159 -92l-17 10q-25 14 -29.5 19.5t-4.5 23.5q-1 22 -11 36q-20 26 -52.5 26t-51.5 -25q-4 -5 -6.5 -11t-4 -11.5t-1.5 -12t0.5 -12.5t2.5 -12t5 -11.5t7 -10.5t9 -8q12 -10 33 -12t34 5q9 4 14 2.5t27 -13.5l29 -17v-184v-185 l170 -97l169 -98l11 6q75 44 191.5 110.5t119.5 66.5q4 0 28 -14l23 -13v-20q0 -27 15 -44.5t41 -21.5q32 -4 54.5 22t14.5 57q-5 19 -20 32.5t-33 16t-37 -5.5q-6 -3 -9.5 -3t-9.5 2.5t-21 10.5l-28 16v185v185l-170 98q-169 97 -171.5 96.5zM480 710v-96v-96h-8 q-91 6 -91 14q0 4 12 33t20 45q3 8 11 20.5t16.5 25.5t17 25t13.5 18zM526 700q4 0 27 -33q20 -29 45 -81t20 -56q-1 -2 -22.5 -5t-48.5 -5l-26 -3v95v17q0 43 0.5 57t4.5 14zM590 684l25 -15q159 -89 159 -93q0 -3 -32 -14q-81 -30 -84 -21q-28 79 -56 123zM407 680 q0 -1 -9 -15q-28 -45 -48 -101q-3 -7 -5.5 -13.5t-4 -10.5l-1.5 -4l-30 9q-27 8 -54.5 18t-27.5 12.5t90 54.5q85 49 90 50zM65 670.5q17 -0.5 22 -15.5q4 -8 -0.5 -19t-12.5 -13q-22 -9 -33 12q-5 11 -1 21q8 15 25 14.5zM201 540q4 0 31.5 -11t61.5 -21t35 -10.5t-3 -29.5 t-6 -45l-2 -16h-58q-58 0 -60 3q-3 3 -2.5 66.5t3.5 63.5zM795 539q3 0 4 -11t1 -54v-67h-59q-58 0 -60.5 2.5t-2.5 19.5t-4 43l-5 26l18 5q19 5 59 19q41 15 47 16q1 1 2 1zM630 490l4 -24q4 -24 5 -40l1 -17l-38 -1l-37 -1l-6 11q-4 8 -17 20.5t-18 12.5q-3 0 -3 15v15h24 q25 0 55 5zM375 487q9 0 31 -2q32 -4 53 -4h21v-14q0 -9 -2.5 -13t-11.5 -9q-14 -9 -22 -23l-8 -15h-39h-39l3 25q5 49 10 55h4zM500 415q6 0 11.5 -2.5t9 -6.5t4.5 -10q1 -8 -3 -17t-11 -12q-9 -4 -12 -3q-15 2 -21 15t0.5 24.5t21.5 11.5zM318 371l2 -16q2 -16 6 -45 q3 -22 1 -28.5t-11 -6.5q-5 0 -42.5 -12t-56.5 -20l-20 -8l1 67l1 67l60 1zM800 371v-68q0 -19 -0.5 -34.5t-0.5 -24.5v-9q-1 0 -11 5q-8 5 -46 18t-56 17l-16 4l3 21q3 21 5 45l2 24l60 1zM383 371h6h8h39l8 -13q8 -13 22 -23q9 -6 11.5 -10t2.5 -13v-14l-39 -2 q-40 -3 -55 -6q-14 -2 -16.5 2t-6.5 36q-1 4 -2 10q-3 23 0 28t22 5zM565 371h36q37 0 38.5 -3t-2 -32t-6.5 -39l-2 -9l-31 4q-32 5 -54 5h-23v14q0 10 2 14t12 10q14 10 22 23zM480 260v-95q0 -95 -1 -95q-4 0 -28.5 36t-35.5 59q-15 28 -25 54.5t-8 28.5q5 5 75 10z M521 260l23 -2q70 -5 75 -10q2 -2 -14.5 -40.5t-28.5 -60.5q-19 -31 -37 -55l-18 -24v96v96zM340 242l8 -25q17 -50 44 -94q15 -25 14 -26t-89.5 50.5t-88.5 53.5q-1 2 12 7.5t33.5 12.5t40.5 13zM663 240q4 0 22 -5q15 -5 36.5 -12t37 -13.5t15.5 -7.5q0 -2 -23 -16 q-31 -17 -90 -52q-18 -10 -33.5 -18.5t-24.5 -13l-9 -4.5q0 3 8 14q12 18 29.5 57t26.5 67q1 4 5 4zM935 158q16 0 23 -16.5t-4.5 -28t-27.5 -5t-16 22.5q0 8 8.5 17.5t16.5 9.5z" />
<glyph unicode="&#xf021;" d="M500 797q-19 0 -32 -13l-355 -354q-8 -9 -11.5 -21t0 -23.5t11.5 -20.5l355 -354q13 -14 32 -14t32 14l355 354q13 13 13 32t-13 33l-52 51l-335 -335l-251 251l251 252l84 -84l-168 -168l84 -83l251 251l-219 219q-13 13 -32 13z" />
<glyph unicode="&#xf022;" d="M100 798v-54v-53v-53v-54v-53v-53v-54h53h54h53h53h54h53h53v54v53v53v54v53v53v54h-53h-53h-54h-53h-53h-54h-53zM527 798v-54v-53v-53v-54v-53v-53v-54h53h53h54h53h53h54h53v54v53v53v54v53v53v54h-53h-54h-53h-53h-54h-53h-53zM153 744h54h53h53h54h53v-53v-53v-54 v-53v-53h-53h-54h-53h-53h-54v53v53v54v53v53zM580 744h53h54h53h53h54v-53v-53v-54v-53v-53h-54h-53h-53h-54h-53v53v53v54v53v53zM207 691v-53v-54v-53h53h53h54v53v54v53h-54h-53h-53zM633 691v-53v-54v-53h54h53h53v53v54v53h-53h-53h-54zM100 371v-53v-54v-53v-53v-54 v-53v-53h53h54h53h53h54h53h53v53v53v54v53v53v54v53h-53h-53h-54h-53h-53h-54h-53zM687 371v-53v-54h53h53v54h-53v53h-53zM687 264h-54h-53h-53v-53v-53h53v-54h-53v-53h53v-53h53h54v53v53v54h-54v53h54v53zM153 318h54h53h53h54h53v-54v-53v-53v-54v-53h-53h-54h-53h-53 h-54v53v54v53v53v54zM207 264v-53v-53v-54h53h53h54v54v53v53h-54h-53h-53zM847 264v-53h-54v-53v-54v-53h-53v-53h53h54v53h53v53v54v53v53h-53z" />
<glyph unicode="&#xf023;" d="M315 835q-118 0 -201.5 -83.5t-83.5 -201.5q0 -115 80 -197.5t194 -86.5q20 -99 98.5 -164t181.5 -65q118 0 201 83t83 201q0 116 -79.5 198.5t-194.5 86.5q-10 48 -35.5 90.5t-62 73t-83.5 48t-98 17.5zM315 785q97 0 165.5 -69t68.5 -166q0 -47 -18.5 -90.5t-50 -75 t-75 -50t-90.5 -18.5q-97 0 -166 68.5t-69 165.5t69 166t166 69zM227 636q-24 0 -40.5 -17t-16.5 -40.5t16.5 -40.5t40.5 -17t40.5 17t16.5 40.5t-16.5 40.5t-40.5 17zM402 636q-24 0 -41 -17t-17 -40.5t17 -40.5t40.5 -17t40.5 17t17 40q0 6 -1 12t-3.5 11t-5.5 9.5t-7 8.5 t-8.5 7t-9.5 5t-11 3.5t-11 1.5zM599 555q61 -4 111 -36t79 -84.5t29 -113.5q0 -97 -68.5 -165.5t-165.5 -68.5q-83 0 -146.5 51.5t-82.5 130.5q56 8 104 36q16 -13 37 -13q12 0 22.5 4.5t18 12t12 18.5t4.5 22q0 4 -0.5 7.5t-1 6.5t-2 6.5t-3 6t-2.5 5.5q26 36 40.5 79.5 t14.5 89.5v5zM671 406q-16 0 -29 -7.5t-21 -20.5t-8 -28.5t8 -29t21 -21t29 -7.5q23 0 40 17t17 40.5t-17 40t-40 16.5z" />
<glyph unicode="&#xf024;" d="M121 732q-50 0 -85.5 -33.5t-35.5 -80.5v-437q0 -47 35.5 -80.5t85.5 -33.5h758q33 0 61 15t44 41.5t16 57.5v437q0 47 -35.5 80.5t-85.5 33.5h-758zM120 632h760q4 0 8 -2t6 -5.5t2 -7.5v-436q0 -6 -5 -10.5t-11 -4.5h-461q-7 0 -11.5 4.5t-4.5 10.5v178 q0 38 -28.5 66.5t-68.5 28.5h-48q-17 0 -29 -13t-12 -29t12 -27t29 -11h48q7 0 11.5 -4.5t4.5 -10.5v-178q0 -6 -4.5 -10.5t-11.5 -4.5h-186q-7 0 -11.5 4.5t-4.5 10.5v436q0 4 2 7.5t6 5.5t8 2zM352.5 590q-22.5 0 -38.5 -15t-16 -37q0 -21 16 -38t38.5 -17t38.5 17t16 38 q0 22 -16 37t-38.5 15z" />
<glyph unicode="&#xf025;" d="M37 765q-16 0 -26.5 -11t-10.5 -26v-694q0 -15 10.5 -25.5t26.5 -10.5h623q4 0 11 11v-11l329 383l-329 384v-12q-8 12 -11 12h-623zM110 649h137v-524h-137v524zM347 649h185q79 0 125 -33q86 -59 86 -220q0 -137 -60 -208q-52 -63 -146 -63h-190v524zM482 538v-301h45 q16 0 26.5 5.5t21 21.5t15.5 50t5 87q0 44 -5.5 72.5t-16 42t-22 18t-28.5 4.5h-41z" />
<glyph unicode="&#xf026;" d="M500 920l8 -437l392 206zM500 920l-400 -231l392 -206zM100 689v-462l374 226zM100 227l400 -231l-18 442zM500 -4l400 231l-383 211zM900 227v462l-374 -236z" />
<glyph unicode="&#xf027;" d="M37 764q-16 0 -26.5 -10.5t-10.5 -26.5v-694q0 -15 10.5 -25.5t26.5 -10.5h634l329 383l-329 384h-634zM410.5 629q41.5 0 70.5 -32t32 -84q8 -13 8 -26q0 -21 -17 -38q-13 -45 -42 -70v-33q0 -1 1 -1q10 -6 36 -13t54 -18q26 -10 42 -48.5t19.5 -64t3.5 -33.5 q-53 -7 -207 -7q-69 0 -121 1.5t-69 3.5l-18 2q1 5 1.5 13.5t5 31t11 41t19 36.5t28.5 24q23 9 42.5 14.5t29.5 8.5t18 8q1 0 2 1v33q-29 25 -43 70q-16 17 -16 38q0 13 8 26q2 52 31 84t70.5 32z" />
<glyph unicode="&#xf028;" d="M242 798q-54 -9 -93.5 -49t-48.5 -94v-515q13 -75 79 -117q29 -18 60 -24q2 -1 4 -1h515q1 0 3 1q53 10 91.5 49.5t47.5 92.5v515q-9 53 -49 93t-94 49h-515zM802 699v-38.5v-37.5q-106 -1 -284 0v75q48 0 142.5 0.5t141.5 0.5zM481 698q1 -25 1 -75h-137.5h-144.5v75 h281zM660 586h142v-76h-284v76h142zM482 586v-76h-282v75q31 0 129.5 0.5t152.5 0.5zM554 474l248 -1q0 -51 -1 -76q-31 0 -283 -1v39v39h36zM482 474v-25v-29v-24h-282v77h89h104t89 1zM518 359h141.5h141.5v-75h-283v75zM311 324q55 0 88 -40q34 -38 24 -93.5t-56 -78.5 q-43 -25 -94.5 -6t-66.5 67q-18 45 6 91t71 56q14 4 28 4z" />
<glyph unicode="&#xf029;" d="M922 704q-1 1 -3 0h-1.5h-1.5h-7h-836v0q-37 1 -59 -31q-17 -26 -13 -57v-230v-230v-1q2 -37 35 -55q25 -14 55 -10v-1h421t421 1h1q37 2 55 35q14 24 10 55h1v228.5t-1 228.5v1v1q-2 36 -35 55q-19 10 -42 10zM918 657h2q12 0 20 -5q10 -6 11 -16q1 -89 1 -228v-228v-2 v-1q2 -16 -5 -29q-5 -10 -16 -10q-71 -1 -419.5 -1h-420.5h-1h-2q-16 -2 -28 5q-10 5 -11 16v229v229v2l-1 2q-2 14 6 26q7 10 18 10h1h836h2h1q3 1 6 1zM145 560v-327h96v188l96 -120l96 120v-188h96v327h-96l-96 -120l-96 120h-96zM697 560v-168h-96l144 -159l144 159h-96 v168h-96z" />
<glyph unicode="&#xf030;" d="M132 847q-36 0 -60.5 -24.5t-24.5 -60t24.5 -60.5t60.5 -25h736q23 0 43 11.5t31 31t11 43t-11 43t-31 30.5t-43 11h-736zM132 621q-36 0 -60.5 -25t-24.5 -60.5t24.5 -60t60.5 -24.5h628q35 0 60 24.5t25 60.5q0 23 -11.5 42.5t-31 31t-42.5 11.5h-628zM129 394 q-34 -1 -58 -25.5t-24 -59.5t24.5 -60t60.5 -25h700q35 0 60 25t25 60q0 23 -11.5 42.5t-31 31t-42.5 11.5h-700h-1.5h-0.5h-1zM132 167q-36 0 -60.5 -24.5t-24.5 -60t24.5 -60.5t60.5 -25h374q35 0 60 25t25 60q0 24 -11.5 43.5t-31 30.5t-42.5 11h-374z" />
<glyph unicode="&#xf031;" d="M137 803l172 -172h-233v-628h123h133h51l117 117l117 -117h68h116h123v628h-233l172 172h-184l-179 -179l-178 179h-185zM207 500h587v-367h-122l-172 171l-171 -171h-122v367z" />
<glyph unicode="&#xf032;" d="M74 795l-96 -96v-704h1044v638h-163v-475h-718v473l164 164h-231zM433 795l-163 -162h231l163 162h-231zM791 795l-163 -162h231l163 162h-231z" />
<glyph unicode="&#xf033;" d="M441 798q-109 0 -201 -53.5t-145.5 -145.5t-53.5 -201q0 -156 106 -271q103 -112 253 -127q21 -2 41 -2q121 0 221.5 67.5t147.5 178.5h149v307h-149q-46 111 -147 179t-222 68zM441 679q47 0 92 -16t81.5 -44.5t61.5 -67.5h-235q-63 0 -108 -45t-45 -108.5t44.5 -108.5 t108.5 -45h235q-38 -59 -100.5 -93.5t-134.5 -34.5q-76 0 -141 38t-102.5 102.5t-37.5 141.5q0 116 82 198.5t199 82.5zM441 433h399v-70h-399q-10 0 -17.5 5t-12.5 12.5t-5 17.5q0 14 10 24.5t25 10.5z" />
<glyph unicode="&#xf034;" d="M495 798q-27 0 -54 -4l-2 -1q-3 0 -5 -1l-49 -116l-117 48q-53 -38 -90 -89l-1 -1q-1 -2 -3 -4l48 -117l-117 -49q-10 -63 -1 -125l1 -2q0 -2 1 -5l116 -49l-48 -117q18 -24 36 -44q1 0 3.5 -3t3.5 -4t4 -3l2 -2q19 -19 45 -38l117 49l48 -117q5 -1 6 -1h1q63 -10 126 0 l49 118l117 -49q2 2 4 3l1 1q52 38 89 90l-49 117l117 48q0 1 0.5 3t0.5 3v1q10 63 0 126l-117 49l48 116q-20 28 -41 49q-1 2 -2 2l-5 5q-20 19 -47 39l-116 -49l-49 117q-35 6 -71 6zM500 699q11 0 22 -1l51 -123l123 51q6 -5 16 -15t15 -16l-51 -123l1 -1l123 -51 q2 -21 0 -44l-123 -51v0l51 -124q-14 -16 -31 -31l-123 51h-1l-51 -123q-21 -1 -44 0l-51 123v1l-124 -52q0 1 -1.5 2t-2.5 2q-2 2 -12 11q-11 11 -11 12l-2 2l-2 2l51 123v1l-123 51q-1 23 0 44l123 51v0l-51 124q15 17 31 31l123 -51h1l51 123q11 1 22 1zM500.5 574 q-6.5 0 -13.5 -1l-29 -72h-1l-72 30l-18 -18l30 -72v0l-72 -30v-3q-1 -1 -1 -5v-5q0 -8 0.5 -9.5t0.5 -2.5l72 -30v-1l-30 -72q8 -9 19 -18l71 30h1l29 -72q13 -1 26 0l30 72v0l72 -30q9 8 18 18l-30 72h1l-1 1l72 29q1 5 1 13t-1 13l-72 30l30 72q-7 9 -18 18l-72 -30v0 l-30 72q-6 1 -12.5 1zM500 447q20 0 34.5 -14.5t14.5 -34.5t-14.5 -34t-34.5 -14t-34 14t-14 34t14 34.5t34 14.5z" />
<glyph unicode="&#xf035;" d="M499.5 796q-21.5 0 -36.5 -15l-73 -73l92 -92q36 13 63 -14t15 -64l88 -88q37 12 64 -15q18 -18 18 -43.5t-18 -43t-43.5 -17.5t-43.5 17q-13 14 -16.5 32.5t3.5 34.5l-83 83v-218q9 -4 16 -11q12 -12 16 -28t0 -31.5t-16 -27.5q-18 -18 -43.5 -18t-43 18t-17.5 43.5 t17 43.5q9 8 21 13v220q-12 4 -21 13q-13 13 -16.5 32t3.5 35l-90 91l-240 -240q-15 -15 -15 -36.5t15 -36.5l349 -349q15 -15 36.5 -15t36.5 15l348 348q7 7 11 16.5t4 19.5t-4 19.5t-11 17.5l-349 349q-15 15 -36.5 15z" />
<glyph unicode="&#xf036;" d="M482 798q-8 -1 -11 -2q-69 -9 -120 -57q-41 -37 -57 -91q-19 -64 4 -126q17 -45 52 -78q2 -2 6.5 -6t6.5 -6q-6 -10 -13 -21.5t-15 -24.5t-14 -22q-5 -9 -13 -21.5t-15 -24.5t-13 -21q-26 1 -45 -7q-30 -13 -45 -40q-16 -30 -7 -63q8 -30 33 -48q31 -22 68 -17 q40 6 63 38q27 37 9 80q0 2 -10 20q15 25 42.5 69.5t36.5 59.5q2 3 35 56q0 1 5 8.5t7 12.5q-3 1 -11 3.5t-12 3.5q-49 20 -70 67q-17 36 -9 75q9 48 48 77q37 27 82 27q58 1 97 -40q35 -35 37 -84q0 -17 -6 -42q12 -4 35.5 -10t34.5 -9q3 0 8 -1q14 43 7 86q-9 68 -59 117 q-42 42 -103 56q-6 2 -17 3.5t-15 2.5h-37zM500.5 674q-17.5 0 -34.5 -7q-37 -15 -50 -52q-8 -20 -4 -44q7 -39 42 -59q24 -15 56 -13q3 -4 5 -8q10 -17 39 -66.5t45 -76.5q17 -30 26 -45q6 -10 8 -12q27 26 59 36q31 10 64.5 3.5t59.5 -26.5q31 -25 42 -61q12 -37 1 -74 q-8 -28 -28.5 -50t-48.5 -33q-31 -13 -66.5 -8.5t-63.5 24.5l-18 16q-4 -3 -10 -9l-7 -7q-5 -5 -19 -18.5t-22 -21.5q23 -23 52 -38.5t61 -21.5q2 -1 10 -2t12 -2h39q4 1 13.5 2t14.5 3q64 13 110 60q46 46 56 110q11 75 -28 137q-36 59 -100 85q-69 28 -142 9l-9 -3t-8 -2 q-4 6 -8.5 13t-9 15.5t-8.5 13.5q-7 14 -23 41t-24 41q-6 10 -8 13q13 19 16 37q5 32 -13 60q-16 25 -44 35q-17 6 -34.5 6zM218 410q-58 -13 -100 -53q-47 -44 -61 -105q-1 -3 -1.5 -7.5t-1.5 -9t-1 -7.5v-37q0 -3 1 -9.5t2 -11.5t3 -10q15 -64 67 -108q50 -41 115 -49 q79 -9 146 33q53 34 78 91q7 17 14 45q6 1 18 0q16 0 53.5 -0.5t57.5 -1.5h16t18 -1q11 -20 25 -30q29 -24 67 -21q28 3 50 20q27 21 32 54q5 35 -15 63q-16 22 -41 32q-35 14 -71 -1q-28 -12 -43 -37q-1 -3 -3 -6q-13 0 -37.5 0.5t-31.5 0.5q-30 1 -86 1q-14 1 -39.5 1.5 t-34.5 0.5h-19q0 -3 1.5 -9t1.5 -8q8 -43 -13 -81q-9 -18 -24 -32t-34 -23t-39 -12q-35 -6 -70 7.5t-57 42.5q-28 35 -27 79q1 37 23 69q27 39 73 51q4 1 9 3q-2 10 -21 76z" />
<glyph unicode="&#xf037;" d="M537 797l-227 -73l492 -160v-314l-328 -106l-277 90v307l268 -86l227 73l-493 160l-141 -46v-510l416 -135l468 151v518z" />
<glyph unicode="&#xf038;" d="M500 797q-112 0 -207.5 -55t-150.5 -150.5t-55 -207.5q0 -131 74.5 -236.5t193.5 -150.5l95 254q-41 15 -66.5 51.5t-25.5 81.5q0 59 41.5 100.5t100.5 41.5t100.5 -41.5t41.5 -100.5q0 -45 -25.5 -81.5t-66.5 -51.5l95 -254q119 45 193.5 150.5t74.5 236.5q0 67 -21 130 t-59 114t-89 89t-114 59t-130 21zM963 115l-23 -92h15l11 43q0 3 1 7v5q1 -2 2 -5l3 -6l26 -48l26 47q1 4 2 6l2 6q1 -4 1 -6q1 -4 1 -6l11 -43h15l-24 92l-28 -56l-1 -1l-1 -1l-4 -10q-2 5 -3 8q-1 1 -3 4zM862 111v-12h27v-76h16v76h26v12h-69z" />
<glyph unicode="&#xf039;" d="M704 797q-40 0 -74.5 -20.5t-53.5 -56.5q-23 -43 -15 -92l-2 2q-1 -1 0.5 -4t-3 -12.5t-11 -19.5t-24 -25.5t-42.5 -31.5q-18 -11 -35 -18.5t-29.5 -11t-23.5 -4.5t-18.5 0t-13 2.5t-7.5 2.5l-3 1l3 -3l-8 4q-53 29 -111 11t-86 -71q-18 -38 -17 -75t21.5 -70.5 t55.5 -52.5q41 -21 84 -16.5t76 31.5l-1 -2l1.5 1.5t3.5 1.5t7 2t10 2t13 0.5t17 -2.5t20.5 -5t24.5 -9t29 -14q82 -44 86 -93q-3 -92 78 -135q53 -28 111 -10.5t86 71.5q18 37 17 74.5t-21.5 71t-55.5 51.5q-7 4 -15 7l3 1q-1 0 -3.5 1.5t-8 10t-10 20t-8.5 34.5t-5 52.5 t2 53t7.5 36t9.5 21t8 10.5l4 2h-5q41 21 62 62q18 37 17 74t-21.5 70.5t-55.5 52.5q-33 18 -70 17zM706 774q39 0 66 -25q-13 13 -43.5 10t-59.5 -22q8 -8 8 -19q1 -13 -7.5 -22.5t-21.5 -9.5h-8l-2 1q-12 4 -21 -8q-16 -29 -16 -56.5t15 -42.5q-31 29 -30.5 74t32.5 80 q37 40 88 40zM605 533q11 0 18 -3l14 -8q13 -7 27 -11q30 -29 33 -117q2 -88 -33 -118q-20 -9 -36 -23q-37 -13 -117 29q-34 19 -56 39t-27 30t-7 18q2 18 -1 37v-1v4.5t3.5 11t11 18t25 24.5t42.5 31q62 38 103 39zM279 499q39 0 66 -25h-1q-13 13 -43.5 10t-58.5 -22 q7 -8 8 -19q0 -13 -8.5 -22.5t-20.5 -9.5q-4 -1 -8 0q-1 0 -2 1q-13 4 -22 -8q-15 -29 -15.5 -56.5t14.5 -42.5q-15 14 -22.5 33.5t-7 40t8.5 41.5t24 39q37 40 88 40zM731 266q39 0 66 -25q-13 13 -43.5 10t-59.5 -22q8 -8 8 -19q1 -13 -7.5 -22.5t-21.5 -9.5h-8l-2 1 q-12 4 -21 -8q-16 -29 -16 -56.5t15 -42.5q-15 14 -23 33.5t-7.5 40t9 42t23.5 38.5q37 40 88 40z" />
<glyph unicode="&#xf040;" d="M160 700q-67 0 -113.5 -47t-46.5 -113v-287q0 -66 46.5 -113t113.5 -47h680q67 0 113.5 47t46.5 113v287q0 66 -46.5 113t-113.5 47h-680zM320 619q80 0 80 -85q0 -17 -19.5 -72t-19.5 -65q0 -27 24.5 -48t54.5 -31t54.5 -22.5t24.5 -25.5v-53h-395v53q0 14 24.5 27.5 t53.5 24t54 30t25 44.5q0 6 -20 62.5t-20 75.5q0 47 21 66t58 19zM609 542q118 0 202.5 -84.5t84.5 -204.5h-55q0 97 -68 165.5t-164 68.5v55zM609 444q78 0 133.5 -55.5t55.5 -134.5h-55q0 55 -40 95q-39 40 -94 40v55zM647 331q16 0 27 -11.5t11 -27.5t-11 -27t-27 -11 t-27 11t-11 27t11 27.5t27 11.5z" />
<glyph unicode="&#xf041;" d="M326 798q-96 0 -199 -56q-27 -15 -36 -45.5t6 -58.5q14 -26 45 -29.5t58 12.5q36 19 67.5 29t54.5 13t52.5 -2t46.5 -10t51 -17q13 -5 42 -17t48 -19t48.5 -13.5t57.5 -6.5q94 0 198 45q29 12 41 41t-1 58q-11 28 -41 34.5t-58 -6.5q-24 -10 -45.5 -17t-41.5 -10.5 t-36 -5t-35 1t-32 4t-32.5 7.5t-30.5 10t-33 11q-2 1 -26.5 10t-31.5 11.5t-29 9t-35.5 9t-33.5 5t-39 2.5zM321 505q-95 1 -196 -53q-28 -15 -37.5 -45t5.5 -58q14 -27 45 -31t58 12q35 19 66.5 28.5t54 12.5t51.5 -2t46 -10.5t51 -17.5q12 -4 41 -16t48.5 -19t49 -13.5 t56.5 -6.5q100 0 211 49q18 9 30 25.5t14 36t-6 39.5q-8 18 -25 27t-36.5 8t-38.5 -10q-39 -17 -74.5 -25.5t-60.5 -10.5t-56.5 4t-50 11.5t-53.5 18.5q-4 1 -27 9.5t-31 11.5t-29 9t-34.5 8.5t-33 5t-38.5 2.5zM310 215q-89 0 -184 -48q-28 -14 -38 -43t4 -57 q14 -27 44.5 -31.5t58.5 11.5q41 21 75.5 30t68 5.5t54.5 -9.5t61 -20q13 -5 42 -17t48 -19t48.5 -13t57.5 -6q104 0 222 54q28 14 39 42.5t-2 56.5t-43.5 33.5t-58.5 -9.5q-40 -19 -77 -28.5t-62.5 -12t-58.5 3.5t-51 12t-55 18q-4 2 -26.5 10.5t-31 11t-29.5 9t-34.5 9 t-33.5 5t-38 2.5z" />
<glyph unicode="&#xf042;" d="M160 700q-67 0 -113.5 -46.5t-46.5 -113.5v-286q0 -66 46.5 -113t113.5 -47h680q67 0 113.5 47t46.5 113v286q0 67 -46.5 113.5t-113.5 46.5h-680zM320 619q33 0 51 -13q4 -2 6 -4q23 -20 23 -67q0 -16 -12 -52q-2 -4 -4.5 -11.5t-3.5 -8.5q-19 -55 -19 -65v-8q1 -4 1 -7 q2 -6 6 -13q6 -11 17 -21h1q10 -9 25 -17q12 -6 29 -13q7 -3 21.5 -8.5t21.5 -8.5q21 -10 29 -18l3 -2v-1q3 -4 4 -6v-4v-54h-395v54q0 16 36 33q3 1 9 4q3 1 4 2q66 27 83 42q5 4 10 9q1 1 2 3q1 0 1.5 0.5t0.5 1.5q1 1 1 1.5t1 0.5q4 8 7 15q1 5 1 7q1 3 1 7q0 5 -7 24 q-2 6 -9.5 26.5t-10.5 32.5q-6 17 -7 21q-3 10 -4 19q-1 4 -2 7v1v7q0 12 2 23v1q2 10 4 17q6 16 17 26q2 2 6 4q14 10 34 13h16zM743 526q35 0 65 -17t49 -45l35 34v-108h-109l34 34q-10 21 -30 34t-44 13q-34 0 -58 -24t-24 -57.5t24 -57.5t58 -24q36 0 61 28h64 q-17 -37 -50.5 -59.5t-74.5 -22.5q-57 0 -96.5 39.5t-39.5 96t39.5 96.5t96.5 40z" />
<glyph unicode="&#xf043;" d="M160 699q-67 0 -113.5 -46.5t-46.5 -112.5v-287q0 -66 46.5 -113t113.5 -47h680q67 0 113.5 47t46.5 113v287q0 66 -46.5 112.5t-113.5 46.5h-680zM320 619q80 0 80 -85q0 -17 -19.5 -72t-19.5 -65q0 -28 24.5 -48.5t54.5 -30.5t54.5 -22.5t24.5 -25.5v-53h-395v53 q0 14 24.5 27.5t53.5 23.5t54 30t25 45q0 6 -20 62t-20 76q0 47 21 66t58 19zM717 532h51v-114h110v-50h-110v-115h-51v115h-110v50h110v114z" />
<glyph unicode="&#xf044;" d="M160 701q-67 0 -113.5 -46.5t-46.5 -112.5v-287q0 -66 46.5 -113t113.5 -47h680q67 0 113.5 47t46.5 113v287q0 66 -46.5 112.5t-113.5 46.5h-680zM320 620q33 0 51 -13q4 -2 6 -4q23 -20 23 -67q0 -15 -12 -52q-2 -4 -4.5 -11.5t-3.5 -8.5q-19 -55 -19 -65v-8q1 -4 1 -7 q2 -6 6 -13q6 -11 17 -21h1q10 -9 25 -17q12 -6 29 -13q7 -3 21.5 -8.5t21.5 -8.5q21 -9 29 -17l3 -3v-1q3 -4 4 -6v-4v-54h-395v54q0 16 36 33q3 1 9 4q3 1 4 2q66 28 83 42q5 4 10 9q1 2 2 3q1 0 2 1v1q1 1 1 1.5t1 0.5q4 8 7 15q1 5 1 7q1 3 1 7q0 6 -7 24q-2 7 -9.5 27 t-10.5 32q-6 16 -7 21q-3 10 -4 19q-1 4 -2 7v1v7q0 12 2 23v1q2 11 4 17q6 16 17 26q2 2 6 4q14 10 34 13h16zM682 526h119v-131h76l-135 -141l-136 141h76v131z" />
<glyph unicode="&#xf045;" d="M75 848v-850h850v850h-850z" />
<glyph unicode="&#xf046;" d="M500 846q-115 0 -213 -56.5t-154.5 -154.5t-56.5 -213t56.5 -213t154.5 -154.5t213 -56.5t213 56.5t154.5 154.5t56.5 213t-56.5 213t-154.5 154.5t-213 56.5z" />
<glyph unicode="&#xf047;" d="M0 552v-306h305v306h-305zM695 551v-306h305v306h-305zM502 544q-41 0 -76 -20t-55 -55t-20 -76q0 -63 44 -107.5t106.5 -44.5t106.5 44.5t44 107.5t-44 107t-106 44z" />
<glyph unicode="&#xf048;" d="M278 768q-95 0 -128 -28q-32 -28 -32 -113v-92q0 -57 -20 -79t-74 -22h-24v-55h24q53 0 74 -22q20 -22 20 -80v-92q0 -84 32 -113q33 -28 128 -28h25v55h-27q-54 0 -70 17q-16 16 -16 71v95q0 59 -17.5 86.5t-59.5 37.5q42 10 59 37q18 27 18 87v95q0 55 16 71 q16 17 70 17h27v55h-25zM697 768v-55h27q53 0 70 -17q16 -16 16 -71v-95q0 -60 17 -87t60 -37q-42 -10 -59.5 -37t-17.5 -87v-95q0 -55 -16 -71q-17 -17 -70 -17h-27v-55h24q95 0 127 28q32 29 32 113v92q0 58 21 80t75 22h24v55h-24q-54 0 -75 22t-21 79v92q0 85 -32 113 t-127 28h-24zM617 683q-27 0 -51 -14t-37 -39q-16 -31 -11 -64l-1 2q1 -3 0 -8.5t-14.5 -22.5t-41 -34t-50 -22t-31.5 -1l-8 4l2 -3q-3 2 -6 3q-37 20 -77 7.5t-60 -49.5t-7.5 -77t49.5 -60q18 -9 38 -11t39 3.5t34 18.5l-1 -2q1 1 3 2t9.5 2.5t16.5 0.5t25 -6t34 -15 q56 -30 59 -65q-1 -28 13.5 -53.5t40.5 -39.5q37 -19 77 -7t60 49t7.5 77.5t-49.5 59.5q-5 3 -10 5h2q-2 1 -6 5t-11 25t-7.5 53t5 53.5t10.5 26.5l6 5h-3q28 14 43 43q12 25 11.5 51t-15 49.5t-38.5 36.5q-23 12 -49 11zM619 667q27 0 46 -17q-9 9 -30.5 7t-41.5 -15 q6 -6 6 -14q0 -6 -2.5 -11t-7 -8t-10.5 -3q-3 0 -6 1h-1q-9 3 -15 -6q-22 -42 -3 -66q-19 21 -18 51t22 53q26 28 61 28zM550 500q7 0 11 -2l10 -6q9 -4 19 -7q21 -20 22.5 -81t-22.5 -82q-14 -6 -25 -16q-26 -9 -81 20q-58 31 -62 60q1 13 -2 26l1 -1q-1 3 0 8t15 21t41 33 q42 26 70 27h3zM323 476q27 0 46 -17h-1q-9 9 -30 7t-41 -15q5 -6 6 -14q0 -5 -2.5 -10t-7.5 -8.5t-11 -3.5q-2 0 -5 1h-2q-8 3 -15 -6q-9 -18 -10 -36.5t8 -28.5q-20 20 -19 50t23 53q25 28 61 28zM637 315q27 0 45 -17q-9 9 -30 6.5t-41 -15.5q5 -5 5 -13q1 -6 -2 -11 t-7.5 -8t-10.5 -3h-5h-2q-8 3 -15 -5q-10 -19 -10.5 -37t8.5 -29q-20 20 -19 50t23 54q25 28 61 28z" />
<glyph unicode="&#xf049;" d="M500 848q-38 0 -69 -21t-46 -56q-10 -23 -10 -48q-17 18 -40 27q-23 10 -47.5 10t-47.5 -9.5t-41 -27.5q-27 -27 -34 -63.5t7 -72.5q10 -22 28 -40q-25 0 -48 -9q-36 -15 -56.5 -46t-20.5 -69.5t20.5 -69.5t56.5 -45q23 -10 47 -10q-17 -18 -27 -40q-14 -36 -7 -72.5 t34.5 -63.5t64 -34.5t71.5 7.5q23 10 40 27q0 -25 10 -48q15 -35 46 -55.5t69 -20.5t69 20.5t46 55.5q10 23 10 48q17 -17 40 -27q35 -15 71.5 -7.5t64 34.5t34.5 63.5t-7 72.5q-10 23 -27 40q24 0 47 10q36 14 56.5 45t20.5 70q0 15 -3.5 29.5t-10 27t-16 23.5t-21.5 20 t-26 15q-23 9 -47 9q17 18 27 40q14 36 7 72.5t-34.5 63.5t-64 34.5t-71.5 -7.5q-23 -9 -41 -27q1 25 -9 48q-15 35 -46 56t-69 21zM500 791q20 0 37.5 -12t24.5 -30q8 -19 4 -39t-18 -34v-138l97 97q0 21 11.5 38t30.5 24q18 8 38.5 4t34.5 -18q9 -10 14.5 -22.5t5.5 -25.5 t-5 -26q-8 -19 -25 -30t-37 -11l-98 -98h138q14 15 34 19t39 -4q9 -4 17 -10.5t13.5 -14.5t8.5 -18t3 -19q0 -20 -11.5 -37.5t-30.5 -25.5q-18 -7 -38.5 -3t-34.5 18h-138l98 -98q20 0 37 -11t25 -30q7 -18 3 -39t-18 -35q-9 -9 -21.5 -14t-26 -5t-25.5 5q-19 8 -30.5 25 t-11.5 37l-97 98v-138q14 -15 18 -35t-4 -39q-7 -18 -24.5 -29.5t-37.5 -11.5t-37.5 11.5t-24.5 29.5q-8 19 -4 39t18 35v138l-97 -98q0 -21 -11.5 -37.5t-30.5 -24.5q-18 -8 -38.5 -4t-34.5 18t-18 35t3 39q8 19 25 30t37 11l98 98h-138q-14 -14 -34.5 -18t-38.5 3 q-19 8 -30.5 25.5t-11.5 37t11.5 37t30.5 25.5t39 4t34 -19h138l-98 98q-20 0 -37 11t-25 30q-7 19 -3 39.5t18 34.5t34.5 18t38.5 -4q19 -7 31 -25q11 -16 11 -37l97 -97v138q-14 14 -18 34t4 39q5 12 14.5 21.5t22 15t25.5 5.5z" />
<glyph unicode="&#xf04a;" d="M500 797q-109 0 -201 -53.5t-145.5 -146t-53.5 -201t53.5 -200.5t145.5 -145.5t201 -53.5t201 53.5t145.5 145.5t53.5 201q0 81 -31.5 155t-85 127.5t-128 85.5t-155.5 32zM500 722q33 0 73 -10q72 -16 129 -61.5t90 -112t33 -141.5q0 -66 -26 -126.5t-69.5 -104 t-103.5 -69t-126 -25.5q-88 0 -163 43.5t-118.5 118.5t-43.5 163t43.5 163t118.5 118.5t163 43.5zM477 592v-2h3v-105l-17 50q2 -2 4 -5l-4 10h-11l1 -1h1h-77l-104 -312h72h1l4 12l-0.5 -0.5l-1.5 -1.5l15 46h112l17 -56h61l13 -1l-2 8q0 -2 -1 -2l-15 47h53q57 0 84 22 q10 8 17 18l2 4q0 1 0.5 1.5t0.5 1.5v0v2l1 1q2 5 3 8v1.5v0.5v1q4 15 4 28q0 30 -12 50q-13 20 -37 28q19 8 28.5 23.5t9.5 38.5q0 19 -6 34l-0.5 1l-0.5 1v1v1q-9 24 -36 36q-2 0 -4 0.5t-3 0.5q2 0 3 -0.5t2.5 -1.5t2.5 -1q-9 3 -19 6q10 -2 11 -3q-7 3 -18 4 q-17 3 -44 3h-31zM662 579q4 -2 5 -3q5 -2 8 -5q-6 5 -13 8zM495 576h95q54 0 76 -16t22 -52q0 -19 -8 -32q-8 -12 -21 -18q-10 -4 -10 -13q1 -10 10 -13q19 -6 29 -22q11 -17 11 -42q0 -38 -22 -56q-24 -19 -75 -19h-59l-48 147v136zM542 552h-1h-1q-1 0 -2 -1q-1 -2 -1 -3 v-1v-1v-1v-66q0 -4 2 -6q1 -1 3 -1h1h1h42q21 0 33 10q11 10 11 30t-11 30q-12 10 -33 10h-42h-2zM552 538h34q15 0 23 -7q7 -6 7 -19t-7 -19q-8 -7 -23 -7h-34v52zM420 466l37 -125h-76zM540 416h-1h-1q-1 0 -1 -1l-1 -1q-1 -1 -1 -2t-1 -2v-1v-76q0 -3 3 -5q1 -1 2 -1.5 t2 -0.5h45h3h1h1q0 1 1 1h1q0 1 1 1q25 1 36 9q15 13 15 35q0 21 -15 33q-15 11 -41 11h-48h-1zM549 402h40q22 0 32 -8q9 -7 9 -22q0 -16 -9 -24q-9 -7 -30 -8h-2h-2h-38v62z" />
<glyph unicode="&#xf04b;" d="M500 796q-52 0 -101.5 -12.5t-96 -39t-85.5 -65.5q-57 -57 -87 -130.5t-30 -152t30 -152t87.5 -131t131 -87.5t151.5 -30t151.5 30t131 87.5t87.5 131t30 152t-30 152t-87.5 131t-131 87t-151.5 29.5zM500 721q134 0 229.5 -95t95.5 -229.5t-95.5 -230t-229.5 -95.5 q-135 0 -230 95q-62 62 -84 146t0 168t84 146q96 95 230 95zM469 618v-73q-30 -5 -47 -21q-26 -24 -26 -67q0 -34 19 -55q17 -19 54 -29l1 -0.5t2 -1.5l26 -6q24 -6 32 -13q1 0 1 -0.5v-1.5q7 -7 7 -19q0 -11 -7 -19q-3 -4 -4 -5q-12 -7 -34 -7q-11 0 -24 2q-15 3 -21 5 q-24 7 -50 22v-63q25 -10 51 -16q7 -1 20 -3v-72h62v73q30 5 46 20q26 24 26 72q0 37 -18 56q-16 18 -54 28l-3.5 1t-4.5 1l-29 7q-16 4 -25 10q-1 0 -2 0.5l-1 0.5q-8 7 -8 18q0 15 11 23l1 1q11 7 35 7q14 0 26 -3q2 0 13 -3q23 -6 42 -16v62q-25 8 -47 11q-1 0 -4 0.5 t-4 0.5v73h-62zM337 575q-16 -47 -24 -91q-8 -45 -8 -87t8 -87q8 -43 24 -91h31q-14 49 -20 91q-7 47 -7 87q0 41 7 88q6 42 20 90h-31zM634 575q14 -49 21 -90q6 -42 6 -87.5t-6 -87.5q-6 -41 -21 -91h31q16 48 23 91q8 45 8 87t-8 87q-7 43 -23 91h-31z" />
<glyph unicode="&#xf04c;" d="M500 797q-52 0 -101.5 -13t-96 -39.5t-85.5 -64.5q-57 -58 -87 -131.5t-30 -151.5t30 -151.5t87.5 -131t131 -87.5t151.5 -30t151.5 30t131 87.5t87.5 131t30 151.5t-30 151.5t-87.5 131t-131 87.5t-151.5 30zM500 722q134 0 229.5 -95.5t95.5 -229.5t-95.5 -229.5 t-229.5 -95.5t-230 95q-62 63 -84 146.5t0 167t84 146.5q96 95 230 95zM554 627l47 -49l-46 49h-1zM316 624v-12v-430v-12h13h342h13v12v301v5l-4 4l-121 128l-4 4h-5h-221h-13zM341 599h204l5 -5v-110h-1v-2h53h17l-18 1l-27 1h79l6 -6v-283h-318h159h158l-2 143l-1 48v-47 v-142h-156h-156v201v196h-2v5zM545 594q2 -2 3 -10v10h-3zM685 489v-159v-160h2v158v160zM520 475l31 -94zM448 474l-85 -253q0 -1 2 -1h55q-1 -1 -2 -1h-2h7l4 10q-2 -3 -3 -5l13 43h93l13 -46l-3 6l2 -10h11q-6 2 -8 3h56q-1 -1 -6 -2q9 1 9 2l-2.5 7.5t-6 17.5t-4.5 15 q9 -32 10 -33l-83 247h-70zM483 415l31 -102h-62zM439 264v-1l21 1h-21z" />
<glyph unicode="&#xf04d;" d="M857 808l-230 -214h111l-85 -368h-2l-120 368h-144l-121 -362h-2l-111 476h-153l185 -700h155l117 363h2l118 -363h153l157 586h113z" />
<glyph unicode="&#xf04e;" d="M75 847v-850h850v850h-850zM722 462q77 0 113 -64l-62 -40q-19 34 -51 34q-17 0 -27.5 -9.5t-10.5 -24.5q0 -17 10.5 -27t38.5 -22l20 -8q55 -24 80.5 -51.5t25.5 -74.5q0 -52 -37 -81.5t-96 -29.5q-53 0 -89.5 22.5t-55.5 59.5l65 37q30 -48 79 -48q24 0 39 11t15 28 q0 13 -8 23t-18 15t-32 15l-20 9q-31 13 -51 27.5t-32.5 38t-12.5 54.5q0 46 32 76t85 30zM458 457h80v-273q0 -60 -32.5 -90t-87.5 -30q-85 0 -120 73l66 39q7 -14 12.5 -21t15.5 -13.5t23 -6.5q21 0 32 11t11 39v272z" />
<glyph unicode="&#xf04f;" d="M359 782q-98 0 -180.5 -48t-130.5 -131t-48 -180.5t48 -180t130.5 -130.5t180.5 -48q73 0 141 29q68 -29 141 -29q98 0 180.5 48t130.5 130.5t48 180t-48 180.5t-130.5 131t-180.5 48q-73 0 -141 -29q-68 29 -141 29zM352 669q80 0 145 -47q65 47 145 47q102 0 175 -72.5 t73 -175.5t-73 -176t-175 -73q-80 0 -145 47q-65 -47 -145 -47q-68 0 -125 33.5t-90.5 90.5t-33.5 125q0 103 73 175.5t176 72.5zM270 569q-28 -59 -34.5 -113t5 -91.5t30 -62t39.5 -34.5q12 -5 24.5 -9t27 -6.5t29 -2.5t29.5 4t28 11t26 20.5t23 30.5q18 -35 52.5 -51.5 t69 -15t66.5 16.5q23 10 42 38t29.5 66.5t3.5 91.5t-34 107h-120q31 -71 31 -146.5t-31 -78.5q-23 -2 -33 7t-14 43t-2 107h-117q4 -69 -2.5 -107t-19.5 -46.5t-32 0.5q-18 7 -24 36.5t1 76.5t25 108h-118z" />
<glyph unicode="&#xf050;" d="M471 766l-471 -702h471v702zM529 766v-18q0 -72 2 -130t10.5 -132t23 -130t41 -113.5t63 -95t90.5 -60.5t122 -23h119z" />
<glyph unicode="&#xf051;" d="M500 847q-176 0 -300.5 -124.5t-124.5 -300.5t124.5 -300.5t300.5 -124.5t300.5 124.5t124.5 300.5t-124.5 300.5t-300.5 124.5zM496 760h4q92 0 170 -45t123 -123t45 -170t-45 -170t-123 -123t-170 -45t-170 45t-123 123t-45 170q0 91 44.5 168.5t121 123t168.5 46.5z M497 661q-84 0 -149 -52.5t-83 -132.5h114q15 34 47 55t71 21q54 0 92 -38t38 -92q0 -35 -17.5 -65t-47.5 -47.5t-65 -17.5q-39 0 -71 21t-47 54h-114q18 -79 83 -131.5t149 -52.5q64 0 119 32t87 87t32 120q0 99 -70 169t-168 70z" />
<glyph unicode="&#xf052;" d="M268 846q-57 0 -102 -24q-29 -15 -46.5 -32t-32.5 -46q-15 -28 -19 -54t-2 -64q3 -36 13 -62.5t33 -54.5q22 -28 45.5 -41t59.5 -18q0 -3 0.5 -7.5t0.5 -6.5v-5.5t-1 -5t-2 -4.5t-3 -5.5t-5 -5.5q-5 -5 -6 -10.5t-0.5 -9.5t-3 -9.5t-12.5 -10.5q-15 -9 -18 -30 q-1 -6 1.5 -10t7 -4t9.5 3q11 8 27 3q12 -5 18.5 6.5t18.5 12.5q-3 -30 -1 -65.5t14 -67.5q14 -36 38.5 -66t69.5 -64q-26 26 -34 34.5t-24 28t-24.5 36t-14.5 36.5q-11 36 -12.5 69t1.5 65q30 5 52 20l5 -33q1 -7 0.5 -12t0 -11t1.5 -10t5.5 -4t5.5 -4q2 -5 3 -19.5t2 -18 t2 -4t2.5 0t2.5 0.5t6.5 -1t7.5 -3t2.5 -9t3.5 -9t9.5 -2t7.5 -2q3 -3 -1 -7q-1 0 -2 -1q-4 -3 -5 -5q-2 -7 1 -16q3 -10 9 -15q2 -1 6 -1.5t7.5 -1t5.5 -2.5t1.5 -7t1.5 -6q1 -2 4.5 -2h6h4.5q8 -4 8 -8q-1 -3 -6.5 -9t-6.5 -7q-4 -7 -3 -12q2 -6 9 -14q4 -4 10 -8.5t13 -9 t11 -7.5q8 -6 8 -10t-6 -9q-1 -2 -7 -4.5t-8 -4.5q-3 -5 -2 -13q0 -3 7 -12q5 -7 12 -10l-10 14q-3 6 1 13q1 2 6 2.5t7 1.5q9 6 10 7q6 9 4 16l-13 28l15 -13q2 -2 3.5 -5.5t3.5 -7t3.5 -5.5t4 -4.5t5.5 -5t5 -4.5q-1 -1 -2.5 -3l-3 -4t-2.5 -4q-11 -17 -9 -26q1 -3 2 -5 t2 -3.5t3 -3.5l3 -3t4.5 -4t5.5 -4q-10 16 -10 19q-1 5 3 11q1 0 10 7q0 -2 -1 -4.5t-1 -4t1 -4.5q2 -5 12 -16q7 -8 16 -15q8 -5 16 -7l16 -1l-5 2.5t-5.5 2.5t-4.5 3l-7 12q2 -1 4.5 -3t5 -3.5t4.5 -2.5q8 -4 18 -6q1 -1 29 -4q-18 9 -19 11q-4 3 -7 13q4 -2 14 -8.5 t15 -7.5q14 -4 27 -2q12 1 23 7q-16 -3 -31 0l5.5 3t13.5 10q19 15 23 29q-11 -13 -31 -18q12 13 12 18q-11 -5 -20 -2q-5 2 -10.5 7t-9.5 10.5t-5 9.5q0 3 0.5 4.5t3.5 4t4 2.5q2 2 9 6t10 7q6 7 8 14q2 8 0 17q-1 3 -4.5 9t-3.5 8q-2 6 -1 11q1 2 3 4.5t4.5 5.5t3.5 5 q2 0 5 1t6 1.5t6 0.5q3 1 6.5 1h7t6.5 0.5t6 1.5q6 3 9 19q3 12 0 33q1 1 7.5 3.5t8.5 3.5t6 4t7 7q3 5 3 13q0 5 -5 10q-1 2 -6 6t-7 5l-6 9q14 9 30 24q9 9 12 17q3 10 3 23q-1 17 -5 29q-2 3 -9 9q-6 5 -11 6q-1 0 -3 -0.5t-4.5 -1.5t-3.5 -1q-15 -2 -17 -1 q-2 0 -3.5 1.5t-3 3.5t-2.5 2q0 2 -0.5 4l-1 4t-0.5 4q-1 1 -1 4v5.5t-1 4.5l-5 17q1 0 4.5 -1.5t6.5 -4.5q3 -2 10 -7t11.5 -7.5t11 -5.5t12.5 -3.5t14.5 -5.5t13.5 -6q11 -2 34 -1q15 0 22 4q8 4 10.5 12.5t-0.5 11.5q-4 3 -9 2q-10 -3 -14 11q-1 3 -1.5 8t-1.5 7 q45 9 72 35q16 15 32 41t21 46q15 53 0 120q-8 36 -32 66q-25 31 -51 46q-33 19 -68 23q-53 5 -84 -7q-1 -1 -28 -17q-2 -1 -7 -4t-8 -5t-8 -3.5t-8 -0.5q-9 0 -15 6q2 -18 12 -27q2 -3 6 -4.5t7.5 -3t8.5 -2t8.5 -0.5h9.5h8.5t8.5 0.5t7 0.5q6 1 20.5 4t23.5 2q18 0 43 -13 q24 -12 41 -38q9 -16 14 -32q4 -15 4 -35q0 -6 -4 -29q-2 -16 -15 -31t-29 -10q-22 7 -51 46q-41 57 -62 76q-25 21 -57 25q-15 2 -27.5 -0.5t-22 -7t-24.5 -15.5q-3 -2 -10 -8.5t-11 -9.5q-6 4 -14.5 11t-17 13t-17.5 9q-23 10 -52 9q-42 0 -72 -25q-12 -10 -56 -60 t-51 -54q-2 -1 -5.5 -4t-5 -3.5t-4.5 -2t-5 -2t-5 -1t-7 -0.5q-13 0 -28.5 17t-16.5 39q0 11 -0.5 17.5t0.5 14.5t3.5 15t6.5 16t11 20q25 44 94 55q15 3 38.5 -2t36.5 -5q19 1 30.5 3t21.5 11.5t10 26.5q-10 -7 -24 -7q-4 0 -10 2.5t-11 5.5t-13.5 8.5t-13.5 8.5 q-23 13 -76 14h-7zM268 838h6q49 -1 71 -12q7 -4 18 -10.5t19 -10.5t14 -5q13 0 20 4q-8 -23 -54 -23q-8 0 -33 5t-43 2q-72 -9 -100 -59q-12 -20 -17 -33.5t-5.5 -26t-0.5 -29.5q1 -16 10 -31t20.5 -23t21.5 -8q13 0 19 2.5t20 11.5q8 5 50.5 54.5t54.5 60.5q27 23 68 24 q28 1 50 -9q15 -7 42 -31l7 -8q7 2 13 2q11 0 22 -16q4 -6 3.5 -14.5t0.5 -13.5q1 -2 3 -3.5t4.5 -2.5t3.5 -2q4 -3 4 -7q3 5 0 8q-1 1 -3.5 2.5t-4 3.5t-1.5 4l1 12t-2 14q-1 2 -2.5 4.5t-2.5 4t-3 3.5t-3.5 3t-4 3t-3.5 2.5l-4 2t-4 2.5l5.5 -1.5t9.5 -3.5q38 -16 45 -35 q6 -14 -6 -28q-1 -2 -10.5 -9t-11.5 -11q-1 -7 2 -12q1 -2 5.5 -5t5.5 -5q2 -4 0.5 -7.5t-5 -5.5t-6.5 -2q8 5 5 13q-3 7 -14 14q-4 2 -10 3.5t-12 4t-12 7.5q-9 6 -12 20q-4 17 -3 29q1 2 1.5 5l1 6t1.5 5q-4 -3 -6 -8q-6 4 -14 12t-13 12t-13 8.5t-18 6.5q-39 6 -77 -15 q-17 -9 -29 -20t-28.5 -31t-23.5 -27q-17 -19 -30.5 -28.5t-37.5 -21.5l-17 -17l-14 16l-22 -3l-4 23l-21 6l4 30l-15 10l11 19l-11 21l14 24l-5 23l17 14l2 24l23 8l10 22h26l13 16l18 -1l20 2l11 7l17 -10l19 10l40 -14l-26 21l-27 4l-20 4l-27 -8l-24 6l-24 -13l-24 1 l-12 -20l-25 -2l-13 -23l-16 -7l-4 -29l-13 -12l6 -25l-16 -18l15 -21l-17 -12l21 -17l-21 -20l26 -8l-17 -21l21 -4l-14 -23h24l-12 -18l25 3l-6 -25l20 15l6 -31l14 22l7 -27l16 20v-29l18 26l-10 -45q-36 5 -59 17.5t-43 38.5q-40 48 -45 112q-2 36 2 61t19 52 q26 48 80 77q39 21 94 21zM739 834q62 0 99 -22q18 -10 51 -46q25 -36 33 -65q3 -15 4.5 -36t0 -41.5t-5.5 -35.5q-5 -19 -20 -44.5t-30 -40.5q-28 -26 -70 -32q-4 6 -6 13t-3.5 16.5t-2.5 13.5l16 -25v28l14 -20l7 27l11 -22l6 30l17 -15l-5 24l22 -2l-10 17l20 -1l-12 23 l18 3l-14 20l22 8l-18 19l18 16l-14 12l13 19l-14 18l5 24l-12 11l-3 27l-14 7l-12 22l-21 2l-11 19l-21 -1l-21 12l-21 -5l-24 7l-17 -4l-24 -4l-22 -19l34 13l18 -9l14 9l10 -7l17 -2l16 1l11 -15h23l9 -21l20 -7l2 -24l15 -12l-5 -22l13 -23l-10 -20l10 -18l-13 -10 l3 -29l-18 -5l-4 -22l-20 3l-12 -15l-15 15q-3 2 -8.5 4.5t-10.5 5t-9 6.5q-11 9 -31 32q-5 6 -18.5 24t-19.5 25q-14 15 -33 26q-32 19 -58 14l-23 -8q2 -2 6.5 -5t8.5 -5.5t6 -4.5q14 -12 18 -19q7 -11 4 -24q-1 -8 -12 -18q17 1 31 -2q1 -1 2 -5t1 -6q4 -19 8 -23 q2 -2 6 -5.5t6.5 -6.5t5.5 -9q0 -2 0.5 -7.5t0.5 -11v-7.5q-1 -1 -9 -14h-14q-11 0 -27 -7q-1 9 1 14q1 2 3 3t3 3q1 1 1.5 2.5l1 3t1 3.5t0.5 3l10 1q6 0 14 -7q-3 8 -11 10q-2 1 -12 1q2 7 6 12q1 1 2.5 2t2.5 2t2 3q2 7 -5 9q-5 2 -12 -1q-10 -4 -16 -21q-4 -14 -2 -35 q1 -6 4 -18q32 -44 43 -62q3 -5 9 -19t10 -20q10 -14 22 -20q3 -1 6 -1t6 0.5t5 0.5q1 1 5.5 2.5t6.5 0.5q11 -3 14 -9q3 -8 3 -25q-1 -15 -4 -22q-2 -3 -15 -16q-4 -5 -16 -12q-13 -9 -24 -13q-4 -2 -12 -4.5t-12 -4.5q18 1 38 4l3 -4.5t6 -6.5q1 -1 6 -4t7 -5q3 -6 0 -12 q-2 -5 -10.5 -8t-14.5 -2q-38 2 -52 -2q-49 -12 -66.5 -9.5t-25.5 5.5q-4 1 -7.5 3.5t-7 6.5t-6.5 7t-6.5 9t-5.5 8.5t-5.5 8.5t-4.5 7q1 2 2 8t1 7.5t1.5 6t2.5 6.5t3.5 5.5t5.5 7.5q-5 -3 -7.5 -5.5t-4.5 -6.5t-2.5 -6t-2 -7.5t-2.5 -9.5q-1 2 -4.5 8t-6 10t-5.5 8t-6 6 q-3 1 -6 1.5t-5.5 0t-6.5 0.5q2 -1 5.5 -2t6 -2t4.5 -3q3 -3 10 -15q2 -3 9 -18.5t11 -21.5q18 -27 31 -34q18 -12 47 -11q6 1 13 2t13 2.5t13 3t12 2.5q15 1 50 -3q4 -22 0 -34q-1 -1 -1 -3q-1 -5 -5 -6q-1 -1 -11 0t-13 1q-26 -1 -53 -5q-52 -9 -58 -14l18 -3q2 0 8 -4 t10 -4t11.5 4t10.5 5l19 -3q0 -2 -1.5 -9.5t0.5 -8.5q1 -2 5.5 -8t5.5 -9q2 -9 0 -14q-2 -4 -9 -11q-2 -1 -5.5 -4t-5.5 -5l-1 11q-6 -13 -19 -19q8 19 7 25q-1 9 -4 17q-2 -19 -2 -20q-4 -9 -13 -16q-4 -3 -15.5 -9t-15.5 -9q-9 -8 -9 -19q0 -3 1.5 -6.5t4 -7.5t3.5 -6 q-13 9 -15 12q-5 7 -6 16v9.5v9.5l-13 7q-14 9 -18 15q-6 8 -5 20q1 3 2.5 5.5t4 6t3.5 4.5q-15 -5 -17 -5q-8 1 -9.5 6t0.5 11q1 2 1 4.5t-0.5 5.5t-0.5 5q-1 -1 -2.5 -3t-2.5 -3.5t-3 -3t-3.5 -2.5t-5.5 -3t-7.5 -4t-4.5 -6q-1 -3 -1 -6t0.5 -6t1.5 -7.5t1 -7.5q-3 3 -6 5 t-8 7q-3 2 -4 4t-1.5 3.5t0 3.5t1 3t2 3t1.5 3q5 8 5 15t-4 14q-7 10 -15 14q-3 2 -10.5 3t-9.5 2q-12 4 -15 9q-3 7 0 14q1 2 4 6t4 6q2 10 -4 13q-3 2 -8.5 2t-8.5 1q-2 2 -2.5 7t-0.5 6q-6 8 -8 9q-1 1 -7.5 1t-9.5 5q-1 4 -1 15t-1 15t-6 6t-6 5t-0.5 9.5t1 11.5 t-1.5 12q-4 13 -3 36q18 15 25.5 23t20.5 29l8 -21q1 -4 20 -30l-10 19q-3 7 -5.5 14.5t-3 13t-0.5 13.5t0.5 11.5t2 12t2.5 10.5q3 20 1 39q-8 -64 -44 -105q-28 -31 -67 -44q-5 -1 -15.5 -3t-18.5 -5t-13 -8q-9 -9 -13.5 -11t-8.5 -0.5t-6 1.5q-11 0 -26 -10q0 6 0.5 9.5 t1.5 5t4.5 4.5t5.5 5q4 4 9 6.5t7 5.5q1 2 2.5 10t4.5 15.5t8 11.5t6.5 10t0.5 12.5t0 15.5q8 29 18.5 55t22 44.5t21.5 26.5q25 21 53 31q4 2 11 2.5t12 0.5t7 1q48 15 65 11q15 -4 33 0q4 1 12.5 5.5t12.5 5.5q6 2 20 3q0 -1 1 -3q4 -17 15 -25q6 -4 11.5 -6.5t12 -4 t11.5 -3.5q11 -5 11 -11q0 -7 -14 -9q11 -11 25 -3q5 3 6.5 11t-2.5 11l-9 7q-5 6 5 15q1 2 3.5 4l5 4t4.5 4q15 14 15 23q-1 16 -16 30q-14 14 -34 22l-4 2t-4 1.5t-4.5 1t-3.5 1.5q11 9 17.5 13.5t15.5 8.5t17 4h23q30 -3 53 -24q19 -17 61 -75q35 -46 55 -49q38 -5 51 45 q4 14 4 32q0 20 -5 37q-5 19 -14 33q-15 25 -43 41q-23 13 -46 14q-12 0 -26.5 -3t-18.5 -3q-35 -3 -44 -1q-16 5 -23 18q7 -4 16.5 0t27 15t27.5 15q20 7 41 8zM660 616q3 -1 7.5 -2t8 -1.5t7.5 -1.5t7 -3q22 -9 41 -36q15 -22 17 -26.5t5 -16t6 -17.5q5 -9 21 -32 q3 -4 8 -9t7 -8.5t2.5 -12t1.5 -10.5q7 -17 23 -13q-2 -12 -20 -14q-16 -1 -34 1q-3 1 -8 3t-9.5 4.5t-8.5 3.5q-10 2 -24 8q-4 2 -8 5t-8.5 6l-7.5 5t-9 5l-8 4l-2 6t-2 5.5t-2 6t-2 5.5l2.5 2.5t2 2.5t2 2t2.5 2q-11 -2 -12 -2q-2 -1 -6 -3.5t-5 -2.5q-1 -1 -13 -2 q-1 1 -2.5 3.5t-2.5 4.5q8 -2 11 -2q10 2 12 12q1 5 -1 11q6 0 7 -1t2.5 -3.5t2.5 -3.5t4 -1h2q1 8 -1 14q-2 3 -8 8q-3 2 -6 3q9 9 10.5 13t1 16t-1.5 16q-2 6 -18 22q-6 6 -4 15q0 5 10 9zM448 608q-8 -11 -14 -14q-2 -1 -6 -1.5t-5.5 -1t-2 -3t-2.5 -2.5h-3h-4h-4.5 t-4.5 -1q-4 -2 -10 -10q-6 -7 -6 -9q-1 -1 -1 -3.5t-0.5 -3.5t-2.5 -2q-2 0 -7 -5q-2 -2 -3 -6.5t-2 -5.5q-1 -3 -19 -16q20 10 24 13l5.5 5.5l5.5 5.5q1 1 4.5 2t4.5 2.5t1 4.5t1 5q3 7 5.5 10t5.5 5t8 0l-0.5 -1.5t-0.5 -4.5v-8.5t-1 -9.5q-1 -2 -2 -3.5t-2.5 -3.5 t-2.5 -3q12 5 13 5q17 10 24 28q4 12 4 32zM502 593q1 -10 4 -13q2 -1 5 -2t4 -1.5t2 -2.5t2 -2q2 -1 9 0q2 -3 5 -9t5 -10.5t3.5 -8t2 -7.5t1.5 -8q4 -6 19 -28q-1 1 -4 7.5t-4 10.5q-1 3 -2 7.5t-1.5 8.5t-1.5 7q-2 2 -4 3.5t-4 4.5q-7 13 -16 41q-7 -5 -8 -5q-5 0 -17 7z M490 558q-12 0 -23 -4q-10 -3 -29 -16q31 12 32 12q20 5 25 0q4 -3 7 -24l-12 -2q-2 0 -7.5 0.5t-8 0.5t-7 -1.5t-6.5 -1.5q-19 -3 -25 -7l1 -18q4 -12 22 -19q15 -6 32 -6q18 0 24 13q2 3 3 13q-5 -13 -7 -15q-6 -5 -14 -6.5t-21 1.5q-6 1 -15 5.5t-16 15.5q6 6 8.5 7 t12.5 1l1 -12q5 -12 20 -10q3 0 6.5 2t5.5 5.5t2 7.5q0 8 -7 14q16 1 18 0q3 -1 3.5 -2t1 -3t1.5 -2q-1 7 -3 10q0 2 -2 4t-2 3q-4 21 -9 28q-3 4 -6 5q-2 1 -6 1zM634 514q-5 -8 -5 -17q-7 12 -8 13q4 3 13 4zM528 487q-6 -19 -7 -19q-1 -2 -3 -3.5t-5 -3.5t-4 -3 q1 1 5 1.5t6.5 1.5t4 3.5t2 6t0.5 8.5t1 8zM664 477q2 -6 4.5 -15.5t3.5 -12.5q1 -2 3 -8l3 -9v-4.5v-6v-4.5l-6 12t-8 15.5t-17 25.5q1 0 5 1t6 2q2 0 6 4zM556 417h-5q-10 -1 -22 -8q-15 -8 -15 -28q-1 -9 4 -19q3 -5 12 -14q0 1 -1 3q-1 4 -2 7v4v4q2 -3 7 -4l2 7v5t1 6 t4 4q8 4 16 1q1 0 8 -5q-4 12 -15 13q-12 2 -19 -4q-1 -1 -3.5 -4.5t-3.5 -4.5q-2 11 9 20q8 8 29 9q14 0 24 -5q2 -1 4.5 -2.5t4.5 -3.5t5 -4t4 -3q3 -1 9 -4.5t8 -4.5q8 -4 18 -13q8 -7 16 -9q4 -1 13 1q-2 0 -7 1t-7 2q-3 3 -7 6.5t-8.5 7.5t-9.5 7q-5 4 -19 13 q-3 1 -10 6.5t-12 7.5q-12 5 -32 5zM570 371q-15 0 -18 -7q-4 -9 4 -16t17 -3q4 2 4 8q0 1 -3 5q5 0 8 -1q15 -7 24 -25q1 -2 7 -22q-1 19 -2 23q-4 16 -15 28q-2 1 -10 7q-5 3 -14 3h-2zM449 354q-5 0 -8 -2q-2 -2 -2 -4v-5.5v-5.5l7 4l1 6q3 1 9.5 2.5t9.5 2.5 q-2 0 -5.5 0.5t-6.5 1t-5 0.5z" />
<glyph unicode="&#xf053;" d="M500.5 846q-102.5 0 -196.5 -46q-51 -25 -104 -78.5t-79 -107.5q-70 -143 -35 -291.5t160 -242.5q23 -18 54 -34t63.5 -28t61.5 -17q34 -6 96 -3q109 4 199.5 57.5t144.5 143.5t59 198q3 62 -7 112t-37 105q-17 35 -47.5 72t-66 67.5t-69.5 46.5q-94 46 -196.5 46z M694 720q48 1 80 -35q13 -14 10 -56t-25 -186q-29 -183 -24 -209q5 -18 28 -11l8 3q20 7 19 1q-1 -7 -27 -22q-62 -36 -75 -11q-6 10 -6 28.5t5 59t20 135.5q17 110 21.5 153t1.5 62.5t-16 33.5q-15 15 -37.5 18.5t-40.5 -6.5q-12 -6 -22.5 -25.5t-19 -48.5t-13.5 -63 l-4 -31h52q51 0 55 -5.5t-16 -22.5t-32 -10.5t-37 6.5h-25l-12 -105q-15 -138 -34 -197.5t-63 -108.5q-30 -34 -36 -34q-15 0 -6 16q3 6 9 12q31 30 47 86.5t31 187.5q16 138 16 140.5t-24.5 2.5t-29.5 4q-2 3 5.5 10t19.5 12.5t20 5.5t12 8t9 35q22 117 116 159q19 8 40 8z M348 514q56 0 81 -52q10 -19 12 -34t0 -49q-3 -62 -32 -109.5t-78 -71.5q-14 -7 -23.5 -10.5t-19 -4.5t-17.5 1t-19 6q-35 16 -52.5 54.5t-12.5 90.5q6 71 49 119q52 59 112 60zM321 478q-71 0 -88 -123q-5 -32 6 -67t30 -51q23 -21 46 -17t41 22t29.5 52.5t11.5 76.5 q0 33 -11 62.5t-26 37.5q-13 7 -39 7z" />
<glyph unicode="&#xf054;" d="M500 848q-115 0 -213 -56.5t-155 -154.5t-57 -213.5t57 -213.5t155 -155t213 -57t213 57t155 155t57 213.5t-57 213.5t-155 154.5t-213 56.5zM500 829q110 0 203.5 -54.5t147.5 -147.5t54 -203t-54 -203.5t-147.5 -148t-203.5 -54.5t-203.5 54.5t-147.5 148t-54 203.5 t54 203t147.5 147.5t203.5 54.5zM500 788q-63 0 -121 -20.5t-104.5 -57t-79.5 -86.5q17 -1 24 -1l97 5q9 1 13.5 -6t1.5 -15t-13 -9q-19 -2 -41 -4l132 -394l80 239l-57 155l-38 4q-9 1 -12.5 8.5t1 15t13.5 6.5q61 -5 96 -5l98 5q9 1 13.5 -6t1 -15t-12.5 -9q-20 -2 -42 -4 l132 -391l36 121q28 89 28 118q0 48 -30 101q-1 1 -6 9.5t-6 10t-5 8.5t-5.5 9.5t-4.5 9t-4 10t-2.5 9t-2 10t-0.5 9.5q0 26 17.5 45.5t43.5 19.5q1 0 3 -0.5l2 -0.5q-104 96 -246 96zM820 598q2 -18 2 -37q0 -61 -27 -131l-112 -322q83 49 132.5 132.5t49.5 183.5 q0 93 -45 174zM167 572q-32 -71 -32 -148q0 -107 56.5 -195.5t149.5 -133.5zM506 392l-109 -318q51 -15 103 -15q62 0 121 21q-1 2 -3 5z" />
<glyph unicode="&#xf055;" d="M453 704q-56 0 -95.5 -39.5t-39.5 -95.5q0 -45 28 -81q61 70 154 70q44 0 84 -18q3 15 3 29q0 56 -39 95.5t-95 39.5zM277 642q-29 0 -49.5 -21t-20.5 -50q0 -18 9 -34q37 21 79 21q5 0 9 -1q-1 8 -1 12q0 32 13 61q-18 12 -39 12zM609 593h-9q3 -14 3 -24q0 -18 -5 -36 q52 -29 81 -81q30 16 63 18q-4 52 -42 87.5t-91 35.5zM500 543q-78 0 -133.5 -55t-55.5 -133t55.5 -133.5t133.5 -55.5t133 55.5t55 133.5q0 51 -25 94.5t-68.5 68.5t-94.5 25zM295 542q-60 0 -103 -42.5t-43 -103.5q0 -72 58 -116q7 14 19 25t27.5 17t32.5 6q4 0 12 -1 q-2 13 -2 28q0 67 40 121q-24 29 -30 66h-11zM753 455q-35 0 -67 -17q18 -40 18 -83q0 -84 -59 -144q43 -48 108 -48q61 0 103.5 43t42.5 103.5t-42.5 103t-103.5 42.5zM130 436h-2q-54 -3 -91 -42t-37 -92q0 -56 39.5 -95.5t95.5 -39.5q42 0 76 24q-14 22 -14 48q0 13 4 26 q-31 23 -49 57t-18 74q0 20 5 40h-2h-2h-2.5h-2.5zM926 320q-5 0 -11 -1v-10q0 -64 -45 -110q23 -26 56 -26q31 0 52.5 21.5t21.5 52t-21.5 52t-52.5 21.5zM286 313q-31 0 -52.5 -22t-21.5 -52.5t21.5 -52t52.5 -21.5q23 0 41.5 13t26.5 34q-41 42 -53 99q-8 2 -15 2z" />
<glyph unicode="&#xf056;" d="M500 847q-17 0 -34 -1q-48 -4 -95 -19t-89.5 -40.5t-77.5 -59.5q-62 -59 -96.5 -140t-32.5 -166q-2 -133 79 -246q55 -78 141 -125t181 -52q17 -1 23 -1t23 1t23 2q128 13 227 96q68 57 108.5 138.5t43.5 168.5q1 13 1 19t-1 18.5t-1 19.5q-4 50 -21 98.5t-44.5 92 t-64.5 78.5q-58 56 -135 87t-158 31zM499 762h5q44 0 77 -9q98 -24 167 -98q80 -85 91 -199q6 -55 -8 -112q-9 -41 -28.5 -78.5t-47.5 -69t-62 -54.5q-89 -62 -194 -60q-103 -2 -191 59q-90 60 -128 161q-43 114 -3 230q28 84 97 145q81 73 189 84q17 1 30 1h3h3zM642 576 q-4 0 -7 -1q-10 -2 -16.5 -10.5t-6.5 -18.5v-23v-22.5v-22.5q-1 -21 11 -30q13 -11 31 -4.5t19 23.5q1 10 1 79q0 13 -10 21.5t-22 8.5zM729 576h-1q-4 0 -7 -1q-9 -3 -15.5 -10t-5.5 -16q-1 -52 0 -83q0 -15 17 -22q14 -7 28 1.5t15 23.5q1 19 0 77q0 21 -20 28q-6 2 -11 2 zM556 576q-4 0 -7 -1q-10 -2 -17 -10.5t-6 -18.5v-37v-37q-1 -9 4.5 -17t14.5 -12q14 -5 28 3t14 23v80q0 11 -9.5 19t-21.5 8zM365 576q-45 -2 -76 -22q-32 -20 -50.5 -55t-18.5 -73q0 -37 4 -51q3 -14 9.5 -28t15 -25.5t20 -21.5t24.5 -17q54 -28 113 -5q29 12 66 53 q1 2 1 3.5t-1.5 3.5t-3 3t-3.5 2.5t-2 2.5q-13 -14 -24 -22q-9 -7 -19.5 -10t-21.5 -3t-22 3t-20 9q-24 17 -37 54q-13 38 -9 109q7 42 25 59q9 9 22 10.5t23 -5.5q4 -5 6 -11t1.5 -12t-0.5 -12q2 -31 14 -41q9 -9 35 -6q9 2 16.5 8t11 15t2.5 18q-3 24 -18 37 q-30 31 -83 30z" />
<glyph unicode="&#xf057;" d="M657 848q-33 0 -70 -8q29 -11 68 -36q15 -9 23 -15t14 -16t2 -19q-32 -56 -133 -9q-7 4 -21.5 11t-22.5 10.5t-23 10t-23.5 8t-24 4t-24.5 -1.5q-56 -10 -91 -110q127 37 164 -33q12 -23 14.5 -53.5t-9 -58.5t-36.5 -38q-14 -6 -28 -6t-25.5 3.5t-24.5 11t-22.5 14.5 t-22.5 16.5t-21 14.5q-17 9 -27.5 14.5t-30.5 13t-34 8.5t-29 -5t-23 -22q-12 -21 -10 -66.5t-9 -66.5q-8 -15 -20 -24t-23.5 -12.5t-29.5 -3.5t-28.5 1t-28.5 4q-5 1 -8 1q26 -25 34 -32q43 -33 80 -27q30 6 60 35q6 6 15 18t17.5 19.5t20.5 11.5q31 9 63 -7t54.5 -47.5 t19.5 -65.5q-2 -32 -39 -59q-20 -14 -62 -20q25 -34 61 -41.5t96 -2.5q13 2 71.5 17t89.5 7q27 -6 34 -25.5t-2.5 -40.5t-27.5 -36q-53 -43 -149 -35q61 -30 115 -45q192 -55 307 76q92 105 103 282q10 176 -64 311q-80 147 -223 163q-18 2 -36 2zM850 659q11 0 16 -8 q74 -109 74 -241q0 -135 -77 -246q-4 -7 -12 -8.5t-14.5 3.5t-8 12.5t2.5 14.5q70 101 70 224q0 120 -67 219q-3 5 -3 10t2 9.5t7 7.5t10 3zM779 612q10 0 16 -9q59 -88 59 -193q0 -108 -62 -197q-4 -7 -12 -8.5t-14.5 3t-8 12.5t2.5 14q55 80 55 176q0 93 -52 171 q-3 5 -3.5 10t2 9.5t6.5 7.5q6 4 11 4zM704 561q10 0 16 -8q43 -65 43 -143q0 -80 -45 -146q-5 -7 -12.5 -8.5t-14 3t-8 12.5t2.5 15q39 55 39 124q0 66 -37 121q-5 7 -3.5 14.5t8.5 12.5q5 3 11 3z" />
<glyph unicode="&#xf058;" d="M353 849q-34 0 -62 -17q-26 -23 -29 -54q-3 -22 10 -52q10 -21 42 -25q13 -2 39 3t36 12q21 17 25 47q5 39 -2 57q-2 3 -4 5.5t-5.5 5t-6 4.5t-7 3.5l-7.5 2.5l-7.5 2.5t-7 2t-8 2t-6.5 1.5zM636 847q-20 0 -40 -10q-23 -12 -27 -42q-8 -111 5 -200q3 -24 0 -49 q0 -20 -2 -29q0 -17 -10 -25q-11 -8 -35 -12q-4 -1 -19.5 -3t-19.5 -2h-20q-24 0 -32 7q-2 2 -2.5 5.5t0 9.5t0.5 7q0 35 -2 50q-5 30 -40.5 57.5t-78.5 15.5q-11 -3 -18 -19t-9 -32.5t-4 -38.5t-3 -28q-5 -46 5 -106q4 -21 10 -79q0 -76 -5 -113q-2 -44 -12 -145 q-4 -30 7 -44q11 -18 39 -22q14 -2 41 1t38 8q24 12 27 42q8 95 -2 183q-3 14 -3 44v7v9.5t1 8.5t2.5 9t4.5 8q4 6 22 12q5 1 11 2.5t12 2.5t11 2q27 4 54 0q9 0 20 -7q5 -4 6.5 -10.5t3 -14l2.5 -12.5q8 -22 18 -42q16 -29 46 -37q17 -4 33 5t25.5 25.5t15.5 32.5t7 29 q2 15 0.5 64.5t-5.5 70.5t-10 79q0 76 5 113q2 45 13 145q3 30 -8 44q-9 15 -69 23h-9zM690 148q-19 0 -44 -4t-35 -11q-21 -17 -25 -47q-4 -26 0 -52q3 -28 32 -32q13 0 29 1.5t34 6t26 9.5q26 23 29 55q8 21 -5 49q-10 20 -41 25z" />
<glyph unicode="&#xf059;" d="M500 848q-115 0 -213 -57t-155 -155t-57 -213.5t57 -213t155 -154.5t213 -57t213 57t155 154.5t57 213t-57 213.5t-155 155t-213 57zM502.5 783q98.5 0 182.5 -49t133 -132.5t49 -182.5q0 -74 -29 -141.5t-77.5 -116.5t-116 -78t-142.5 -29q-98 0 -182 49t-133 133 t-49 183t49 182.5t133 132.5t182.5 49zM719 662h-192v-67h17q15 0 18.5 -2.5t3.5 -7.5q0 -2 -2 -5t-11 -13l-134 -140v129q0 19 3 26q4 7 11 11q4 2 25 2h13v67h-210v-67h18q16 0 22 -3.5t9 -10.5t3 -29v-264q0 -22 -2 -28q-3 -7 -9 -10q-7 -4 -25 -4h-16v-67h210v67h-17 q-18 0 -23.5 3t-8.5 10t-3 25v48l65 64l75 -121q10 -16 10 -20t-5 -6q-5 -3 -29 -3h-9v-67h217v67h-8q-18 0 -28 7q-7 4 -23 28l-124 188l104 101q13 12 19 17q8 5 13 7q5 1 19 1h7l17 1v66h-20z" />
<glyph unicode="&#xf05a;" d="M411 787q-25 -1 -51.5 -7.5t-47 -15.5t-37 -17.5t-25.5 -15.5l-9 -6q-50 -33 -118.5 -92t-109.5 -102q7 -1 21 4t20 6l99 27q-8 -7 -36.5 -30t-47 -39t-39.5 -38.5t-30 -39.5q5 2 57 26t71 26q-3 -3 -24.5 -22t-33 -30t-26.5 -27t-21 -27l1 -6q2 1 14 8.5t19.5 11.5 t20 10.5t21.5 10.5t18.5 7.5t15.5 4.5q-77 -83 -89 -125q19 13 55 32.5t55 26.5q-3 -8 -13.5 -21.5t-13.5 -19.5q-4 -7 -15 -20.5t-18.5 -26t-8.5 -23.5q30 29 73 53q-2 -6 -18.5 -32t-19.5 -44q4 5 10.5 9.5t15.5 8t14.5 6t16.5 6t14 4.5l-3 -2q0 -1 -3.5 -3.5t-7.5 -6 t-10 -8.5t-11.5 -11t-10.5 -12q5 1 8 1q2 1 9 -1q3 -1 6 -1l-32 -13q143 -188 395 -166l-13 28q9 16 15.5 45t11 51.5t19.5 46.5t40 37q10 5 24.5 13.5t20 11t16.5 6t22 2.5t28 -4q7 -1 37 -9t54 -12t39 0q47 27 68 44q12 -3 20 -3t14 1.5t10.5 5.5t8.5 11q28 75 33 86l1 15 q-5 16 -8 42t-4 45.5t-4 23.5q-13 19 -48 35.5t-70.5 28t-76 32t-62.5 45.5q13 43 -37 91q-17 13 -41.5 15.5t-42.5 -1t-43 -10.5q-20 4 -41.5 10.5t-47.5 14.5t-41 13q-8 1 -18 1h-4zM410 739q21 0 57.5 -10t47.5 -11q-1 -3 -3.5 -5.5t-5.5 -5t-4 -4.5t-5 -7t-4.5 -7 t0.5 -8l32 12q12 3 41 13t51.5 14.5t44.5 1.5l24 -31q-18 15 -40 15.5t-39 -6.5t-41.5 -18t-39.5 -14q-11 -2 -30.5 -7.5t-27.5 -7.5q29 -22 75 -17q3 -15 18 -34.5t29 -22.5q-1 6 -7 20.5t-7.5 23t4.5 24.5q2 1 10.5 6.5t13.5 8t12 5t13.5 1.5t12.5 -6q-6 -1 -11.5 -3 t-13 -6.5t-9.5 -6.5q-6 -4 -8.5 -14t-0.5 -14q7 -20 41 -33.5t88 -13.5q-3 4 -14 16t-20 23.5t-8 17.5q33 -33 88.5 -57.5t102 -40.5t59.5 -29q1 -5 -13.5 -22.5t-10.5 -22.5q-4 -11 29 -51q2 -2 3 -4q-7 48 4 46q10 -2 12 -32q2 -25 -7 -48l-35 8q-23 2 -43 5t-40 9.5 t-32 11t-32.5 16.5t-29 17.5l-34 22t-34.5 23.5q-22 14 -93 71l-50 19q13 -15 28.5 -32.5t21.5 -24.5t12 -16t5 -16.5t-4.5 -17t-12.5 -25.5l-17 31l-7 55q-8 -29 -11 -50.5t0 -46.5t20.5 -45t48.5 -35l50 -7q-14 12 -22 19.5t-13.5 19t-2.5 21.5q6 -12 21.5 -24t31 -20 t41.5 -17t40.5 -13t41 -11t31.5 -8q15 -6 24 -15q-4 -4 -8 -6.5t-7.5 -4t-7 -2t-8.5 -2t-10 -3.5q-8 3 -21 7t-23 7t-22 7.5t-20.5 8.5t-16.5 9.5t-12 12.5q4 -6 -25 -13q-18 -5 -65 -14q-43 -8 -44 -10q-1 -1 4 -1q-35 1 -70 21.5t-63 51.5l-9 3q0 -13 6.5 -27t14.5 -24 t19 -24t16 -23l38 -17l-9 -6t-10 -6t-9.5 -6t-9 -7.5t-7.5 -8t-7 -9.5q-1 -2 -3 -6.5t-3 -7t-2 -6.5t-0.5 -7.5t1.5 -6.5q21 23 61 33l-16 -25q2 -18 -9 -49q-2 5 -5 9q-47 21 -71 40q13 -42 62 -82q-5 -12 -12 -23q-36 25 -54 42q4 -8 8.5 -20.5t8.5 -23t9 -17.5 q-133 10 -217 82l60 34q-7 -1 -20.5 -4.5t-30.5 -8t-26 -6.5q-3 4 -7 8q7 4 25 12.5t29.5 14.5t23.5 15.5t17 17.5l-6 -2l-61 -3q-5 17 3.5 37t14.5 31.5t-5 31.5q-35 46 -52 86t-12 84q8 -17 14 -22q0 4 2.5 20t4.5 23q4 -14 6.5 -20.5t9 -17t16.5 -16.5l1 2q-8 32 -7 63.5 t16.5 61.5t44.5 48q-6 -2 -28 -5t-36 -9q2 1 5.5 11t9.5 21t13 17q5 4 11 9.5t11.5 10t11.5 8.5q49 38 102 47q8 1 16 1h4zM425 692q-28 0 -60 -12l-13 -10q-28 -33 -31 -55l3 -4q13 16 37 28q0 -18 9.5 -33.5t25.5 -24.5h3q-7 41 8 77q7 6 24 15t24 16q-14 4 -30 3z M625 633q8 0 15 -3q-6 -3 -8 -11q-1 -4 0 -7q-11 8 -11 21h4zM462 632q1 -5 5 -10.5t9.5 -12.5t8.5 -10q-28 -2 -60 -11q5 -4 14.5 -9t13.5 -9q-5 -2 -19 -6.5t-20.5 -7.5t-17 -9t-18.5 -13l5 -2q64 13 133 -2l3 2l-25 46l38 8q-39 37 -70 46zM662 618q8 -7 15 -16 q-11 -3 -22 0q5 3 7 10v6zM599 594q13 -39 37 -41q33 -6 62 -1q-12 6 -32.5 11t-37.5 12t-29 19zM368 532q-46 -35 -38 -95q3 -10 -1 -27t-5.5 -28t8.5 -26q22 -25 63 -55l-2 8q-35 41 -46 74q5 -1 16.5 -5.5t18.5 -7t17.5 -5.5t19.5 -4q-6 9 -16 21.5t-17 21.5t-16 23 t-12 24t-5 25.5t4 28.5q0 4 6.5 13t4.5 14zM728 403q2 0 5.5 -1t6 -2t2.5 -2q-3 -2 -8.5 -7t-8.5 -6zM768 382q4 0 10 -4l-13 -13l1 17h2zM798 371l10 -6q-1 0 -3 -2t-3.5 -4.5t-3.5 -5t-3 -2.5q1 1 1 6.5v9.5t2 4zM829 357h2t3.5 -1t3.5 -1q0 -1 -5 -9.5t-10 -8.5l4 8 q-1 12 2 12zM861 351l12 -3l-13 -22zM896 345q1 0 12 -4l-15 -11q-1 15 3 15zM933 339q5 0 7 -2q0 -4 -5.5 -10.5t-6.5 -8.5q1 18 0 21h5z" />
<glyph unicode="&#xf05b;" d="M340 803l-5 -1q-10 -3 -12 -7t-2 -17l1 -16l-10 -2q-6 -2 -7.5 -2t-2.5 1t-2 4q-11 30 -16 30q-2 0 -6 -6q-5 -7 -5 -8t8 -14l8 -14l-7 -6q-6 -7 -8 -7t-13 9q-16 14 -21 14q-1 0 -1 -11v-10l14 -8q8 -4 10.5 -6.5t1.5 -4.5q-1 -3 -2 -8q-1 -4 -2 -6t-17 0q-18 3 -22 0.5 t4 -13.5q2 -4 4.5 -4.5t13.5 0.5l16 2l2 -10q2 -11 0.5 -12t-13.5 -5.5t-18 -8.5l-5 -3l5 -4q8 -6 12 -6t15 7l13 8l7 -8q6 -6 5.5 -8t-11.5 -16q-8 -9 -9 -14q4 -4 9 -5h11l7 14q7 14 10.5 14t2.5 -9q-1 -5 -11 -78l-10 -68h-14q-7 0 -9.5 0.5t-3.5 1t-1 3.5q-1 8 -2 9 t-5 0q-4 -3 -3 -7q1 -1 0 -2t-3 -2.5t-6 -2.5l-9 -5q2 0 11.5 4t10.5 2t-0.5 -3t-7.5 -2q-4 -1 -9.5 -7.5t-7.5 -12.5q-1 -3 -0.5 -4t2.5 0t2.5 0t-0.5 -4l-1 -6l6 5l7 5v-7q0 -8 1.5 -8.5t12.5 -22.5q27 -53 50 -73q17 -15 24 -35q2 -8 2.5 -8.5t1.5 3.5q1 12 3 11 q4 -1 5 -21q1 -15 4 -16l1 6q0 5 3 14l3 8v-7q0 -8 2 -9q2 -2 3 2l1 3l1 6l6 -5q6 -6 14 -24q6 -15 10.5 -20.5t11.5 -5.5q5 0 9 -3.5t11 -15.5q5 -9 23.5 -28t26.5 -24q2 -1 7.5 -1.5t12.5 -0.5t14 1t12 2q11 3 25 17.5t14 18.5t11 10t14 13q1 3 2.5 5l1.5 2 q3 -1 14.5 -14.5t11.5 -15.5t2 1q3 5 5 -5q1 -3 1 -8l2 -14l1 11q3 18 8 18q3 0 16.5 12.5t18.5 18.5q4 6 5.5 7t6.5 -2q8 -3 10.5 -3t9.5 12.5t8 13t5 -4.5t12 -9.5t13 -4.5q14 0 20 12q3 6 10 17q8 11 11 23l5 9l1 -2q4 -8 8 3l2 4q4 11 8.5 11.5t5.5 3.5t5.5 0t10.5 -0.5 t10 16.5q6 16 11.5 25t22.5 27q21 22 23 27l2 6l3 -6q3 -6 3.5 -6t-0.5 8v8l6 -6l7 -7l-1 8q-1 6 -0.5 7t3.5 0t3 0t-2 5l-4 6l5 -4q6 -6 3 2l-2 6v1q-4 8 -2 7q1 0 4 -1q6 -2 6.5 -1.5t-2.5 3.5q-9 11 -28 14q-9 1 -15 4t-14 3q-7 0 -17.5 5.5t-13.5 5.5t-10.5 11t-8.5 18 q-2 8 5.5 15t15.5 15q5 4 6 5.5t6 1t9 -2.5t16 -9q16 -8 21 -8t23.5 7.5t26.5 16.5t9 11.5t15.5 4.5t20.5 5q9 5 12.5 16t-1.5 18q-3 5 -20 16t-25 14q-10 3 -36 3.5t-38 -5.5q-11 -5 -22 -15t-15 -17q-3 -8 0.5 -14.5t2.5 -7.5q-2 -2 -5.5 0.5t-4.5 6.5q-2 6 -12 20 q-15 20 -15 30q0 14 15 14q14 0 25 21q2 5 3 11t1 12.5t-2 12t-5 9.5q-10 13 -53 24q-24 7 -58 1q-26 -4 -35.5 -10t-14.5 -20q-7 -21 2 -35q8 -14 42 -23q13 -4 23 -10.5t20 -8.5q25 -3 41 -31q7 -14 7.5 -19.5t-6.5 -12.5q-10 -12 -17 5q-2 4 -5 8.5t-6 8.5t-6.5 6.5 t-6.5 3.5q-6 2 -16 14.5t-20.5 17.5t-27.5 6q-35 2 -67 -9q-11 -4 -18 -12t-7 -17q0 -5 -1 -5q-3 0 -18.5 10t-22.5 16q-3 3 0 5t0 2t0 2t0 2t0 2.5t0 2.5t0 2t0 2t0 2t0 2t0 2t0.5 2t-2.5 11l-1 11l-1 -11q0 -11 -2.5 -11t0.5 -2t0 -2t0 -2t0 -2t0 -2t0 -2t0 -2.5t0 -2.5 t0 -2t0 -2t0 -2q4 -2 -11 -13l-2 -2q-2 -1 -4 -3q-10 -8 -13 -6.5t-10 17.5q-1 3 -2 5q-11 25 -18.5 29t-45.5 4q-33 -1 -43 -3t-13 -10l-3 -5l-8 4q-8 4 -6.5 7.5t3 10t4.5 6.5q1 0 18 -3q10 -2 14.5 -1.5t5 3t-2.5 8.5l-4 9l-16 -1l-17 -2l-2 7q-1 8 -2 11q0 1 1 2.5t4 3 t9 3.5q14 6 19 9l5 4l-8 6q-8 5 -10 4q-1 0 -14 -8l-13 -8l-8 7l-7 8l10 12q17 20 14 23q-1 1 -11 1q-6 0 -8.5 -2t-7.5 -12l-8 -15l-10 3q-7 2 -8.5 3.5t-0.5 4.5q1 4 2 21zM323 757v-11q0 -12 -5 -13.5t-6 -1.5t-4.5 11t-3 11.5t9.5 2.5zM337 756q2 0 5.5 -1t6.5 -2.5 l3 -1.5q0 -2 -4 -11q-7 -12 -14 -7q-2 1 -1.5 11t3.5 11q0 1 1 1zM291.5 746q1.5 0 6.5 -10q4 -5 4.5 -7t0 -3t-2.5 -3q-4 -4 -5 -4t-9 7l-8 7l6 7q6 6 7.5 6zM364 744l7 -7l7 -7l-9 -5q-12 -8 -16 -3q-3 3 -2.5 5t6.5 9zM324 729q4 0 4.5 -1.5t-0.5 -9.5q-1 -11 -1.5 -11.5 t-5.5 -1.5q-3 -1 -8.5 2t-9 7t-1.5 6q12 9 22 9zM335 728q1 0 6 -3q6 -2 11 -7.5t5 -7.5q0 -1 -7 -4q-9 -3 -17 -1q-4 1 -2 10q1 13 4 13zM271 723l10 -6q5 -3 7.5 -5t1.5 -4t-1 -5q0 -1 -0.5 -2t-1.5 -1q-3 0 -16 3q-8 2 -2 14zM381 718q3 0 6 -12l1 -6h-12h-7t-3.5 0.5 t-2 1.5l-1.5 3q-1 5 6 8q10 5 12 5h1zM90.5 716q-20.5 0 -32.5 -5q-38 -15 -53 -53q-5 -13 -5 -34t5 -35q10 -29 36 -56q14 -15 18 -24t4 -25q-1 -13 1 -13t3 -11l2 -10h18q16 0 18.5 1.5t2.5 11.5q0 8 3.5 8t3.5 5v5l8 -4q17 -9 42.5 -11.5t41.5 3.5l5 3l-2 -1 q-27 -5 -54 -1.5t-40 13.5l-4 4l3 13q2 7 4 11t5.5 8.5t12.5 13.5q27 27 38 57q6 14 6 34.5t-5 33.5q-15 38 -53 53q-12 5 -32.5 5zM299 713q2 0 7 -4t5.5 -6t-1.5 -7q-3 -6 -8 -8.5t-7 -2.5q-1 0 -1.5 5.5t0.5 12t2.5 8.5t2.5 2zM356 705q8 0 3 -18q-4 -15 -12 -9 q-4 4 -3.5 13.5t4.5 10.5q3 2 7 3h1zM570 705q-1 0 -1 -4q1 -2 1 -3q1 4 0 7zM264 691h12q10 0 11.5 -0.5t2.5 -4.5q0 -6 -9 -10q-10 -4 -11.5 -3t-4.5 13zM366 691q1 0 5 -1q7 -1 11 -2q8 -2 2 -14q-2 -3 -4 -3t-10 4q-5 2 -7 4t-1 4q1 3 1 6q0 2 3 2zM308 685q3 0 2 -7 q-1 -16 -10 -3q-3 4 -3.5 5.5t1 2t6.5 1.5q3 1 4 1zM322 685v-1q1 -1 0 -4l-1 2q0 2 1 3zM329 685q1 0 2 -1q2 -1 0 -5t-4 -4t-2 4q1 4 4 6zM344 676q1 0 3.5 -2.5t1.5 -3.5q-1 -2 -3 -2q-1 0 -2.5 3.5t-0.5 4.5h1zM320 674v-1q1 -3 0 -5q-1 1 -1 2q0 3 1 4zM332 673 q1 1 2 -4q1 -4 0.5 -4.5t-3 2.5t-0.5 6h1zM794 672q4 0 6 -1q3 -3 -2 -8t-6 -5t-7 6t-3 6t9 1q1 1 3 1zM357 672q1 0 6 -4q6 -4 8.5 -7.5t-3.5 -9.5l-6 -6l-6 8q-8 12 -3 17q2 1 3 1q0 1 1 1zM295 672q2 -1 5 -3l4 -4l-7 -9q-7 -9 -8 -9t-6.5 6t-5.5 7.5t9 6.5q7 4 9 4v1z M765 668q4 0 7 -6q2 -4 2 -5t-3 -1q-14 2 -19 9q1 1 9 2q3 1 4 1zM326 667q2 0 3 -2q3 -3 -1.5 -3t-4.5 2q0 3 2 3h1zM379 655l8 -7l8 -6l-6 -14q-6 -14 -7 -14t-9 12t-8 14t7 9zM305 648q2 -1 0 -6q-1 -3 -3 -3t0 5q2 3 3 3v1zM337 643q1 0 1 -4t-3.5 -4t-0.5 3q2 4 3 5z M316 642h1q2 -1 2 -4t-2 -3t-2 4q0 3 1 3zM350 633q2 0 8 -16q7 -18 9.5 -19.5t7.5 4.5q4 5 0 -4l-5 -10l-11 -20l-1 1v1q-2 5 -5.5 33.5t-2.5 29.5zM314.5 630q2.5 0 2.5 -1t-2.5 -2t-2.5 1t2.5 2zM337.5 630q2.5 0 2.5 -2t-1 -2t-2.5 2t1 2zM332 623q1 0 2 -1q4 -3 4 -3.5 t-3.5 -0.5t-3.5 3q0 2 1 2zM768 608q4 0 10 -7q3 -2 3 -3t-4 -2q-13 -3 -18 0q-2 2 3 8q3 4 6 4zM334.5 607q3.5 0 1 -3t-3.5 -3t-1 3t3.5 3zM342.5 601q1.5 0 2.5 -9.5t0.5 -10.5t-7.5 5l-7 5l5 5q5 5 6.5 5zM310 599q2 0 2 -5t2.5 -6t-3.5 -6l-5 -5l1 7q1 7 1 11t2 4z M782 593q2 0 3 -4t6 -9q4 -3 4 -4.5t-3 -4.5q-4 -4 -11 -17q-6 -13 -19 -27q-13 -13 -17 -19q-6 -7 -9.5 -7.5t-13.5 3.5q-23 9 -48 0q-22 -7 -40 0q-6 2 -6 13v10h12q11 0 11 3.5t4 3.5q10 0 25 12l6 4h-17q-33 1 -32 7q1 1 0 2h-3q-5 0 -2 2t0.5 4t0 3t-1.5 5t-5 1t-6 -3 t-4.5 6t10 7.5t20.5 -2.5l11 -5l22 5q22 5 31 4q31 -3 38 3q4 4 13.5 3t15.5 0q3 1 5 1zM327 586l8 -5q7 -6 7 -6.5t-13.5 -0.5t-13.5 1.5t6 6.5zM862 581q2 0 6 -1t7.5 -2t6.5 -2.5l3 -1.5q0 -2 5 -9l5 -8l-5 -1q-5 -1 -7.5 -0.5t-16.5 7.5q-13 6 -15 8t1 5q4 4 7 5h1h2z M932 580q11 0 11 -2t-10.5 -10.5t-13 -8.5t-6.5 -2l-3 1q1 1 3 5q3 6 3 10t3 6q3 1 10 1h3zM898 576q18 0 8 -11q-7 -6 -12 1q-5 5 -5.5 6.5t1 2.5t8.5 1zM620 567h3q2 -1 0 -1h-2q-4 0 -4 1h3zM310 563h16h17l-7 -6q-8 -6 -9 -6t-9 6zM620 561q2 0 3 -1q2 0 0 -1h-2l-4 1 q1 1 3 1zM304 557q2 0 8.5 -4.5t6.5 -6t-10 -8.5l-10 -7l2 7q1 6 1 12.5t2 6.5zM349 556q1 0 1 -2t-4.5 -8t-8.5 -3.5t4 8.5q6 5 8 5zM326 540h1q1 0 4 -2q5 -4 3.5 -7.5t-14 -3.5t-12.5 1t9 7q7 5 9 5zM313 517l9 -2l-2 -2q-4 -4 -5.5 -4t-6.5 4l-5 4h10zM299 509q1 0 5 -3 t4 -4t-3 -4q-4 -5 -8 -7q-3 -1 -2 2v5q1 11 4 11zM81 504h5h3h24l-1 -8q-2 -8 -3 -9.5t-21 -1.5q-10 0 -13.5 0.5t-6.5 2t-3.5 4t-0.5 7.5q0 4 2.5 4.5t14.5 0.5zM810 347q2 0 4 -4q3 -7 3 -8q0 -4 -6 0l-2 2l-1 5q-1 2 1 4q0 1 1 1zM802 346v-3q1 -5 -0.5 -8t-3.5 -3 q-1 0 -1.5 2t0.5 4.5t2 4.5zM772 325q3 0 0 -14q-3 -10 -6 -17l-3 -8l1 9q2 25 6 28zM759 305l-1 -7q-2 -7 -4 -15l-1.5 -4.5t-2 -2.5t-3 -1h-5.5q-7 0 -14.5 2.5t-7.5 4.5q0 1 1.5 1t3 -0.5t4.5 -0.5q13 -2 23 14zM710 286l7 -7q6 -5 15 -8t13 -2q2 1 3 0q1 -4 -6 -9 q-11 -8 -25 5q-10 9 -8 15zM590 244q5 0 19 -9q13 -9 20 -10q11 -2 3 -8q-15 -10 -36 15q-8 10 -8 11t2 1z" />
<glyph unicode="&#xf05c;" d="M502 827q-96 0 -96.5 -1.5t-1.5 -137t-2 -138.5l-2 -2q-1 0 -134 43.5t-133.5 42.5t-30 -94t-28 -93.5t127 -42.5t125.5 -44.5t-79.5 -118t-79.5 -116.5l160 -112q1 0 81 110t82 110t41 -55q11 -14 25.5 -35t30 -42.5t27.5 -37.5q43 -60 44 -60t79.5 58t79 59t-76 112.5 t-76 113.5t129.5 45.5t130 44.5l-9 29.5t-19.5 64.5t-20 64.5l-9.5 29.5q-1 1 -128 -42t-129 -43t-2.5 20t-3.5 134q-4 133 -5 133q0 1 -13.5 1h-35.5h-48z" />
<glyph unicode="&#xf05d;" d="M444 999q-10 0 -20.5 -1t-21.5 -4q-50 -11 -79.5 -48.5t-35.5 -86t2.5 -100t29.5 -95.5q35 -73 106.5 -160.5t104.5 -106.5q0 -1 -0.5 -1.5t-0.5 -1.5q-5 -31 -15.5 -55t-27.5 -47q-16 -19 -38.5 -41t-70.5 -64q-14 -11 -24.5 -24t-19 -27t-14.5 -29.5t-12 -33.5 q-2 -9 -4 -17t-6 -25q-11 -49 -22.5 -73.5t-33.5 -45.5q-18 -16 -33.5 -25.5t-30.5 -14.5t-38 -8q-16 -2 -24.5 -4.5t-16.5 -6.5q-6 -3 -11 -7t-10 -9q-5 -4 -0.5 -9t9.5 0q9 8 18 13q12 7 36 10q36 5 58.5 15.5t51.5 36.5q16 15 26.5 31.5t18 37.5t15.5 56q6 28 10 41 q19 68 65 108q84 74 111 107q23 30 35 63q-5 -33 -25 -71q-4 -9 -11 -20q0 -1 -1.5 -4t-3 -5t-3 -4.5l-1.5 -2.5q-19 -33 -24 -55.5t0 -50.5q5 -34 2 -46l-1 -1q-4 -5 0 -9q5 -5 10 0q2 2 3 6q5 15 -2 52q-3 16 -1.5 31t7 30t17.5 36q0 1 2 4t4.5 7t3.5 6q6 11 11 20 q33 66 27 121l-1 3q26 8 72 28.5t114.5 64.5t105.5 92q22 27 39.5 58.5t30 65t17 67t0.5 63.5t-20.5 57t-43.5 46q-32 21 -66.5 25t-62.5 -6t-51 -23t-40.5 -25t-24.5 -12q-6 0 -21 16.5t-32 35.5t-48.5 35.5t-68.5 16.5zM464 87h-1h1z" />
<glyph unicode="&#xf05e;" d="M75 850v-170h510v170h-510zM755 850v-170h170v170h-170zM75 510v-170h850v170h-850zM75 170v-170h340v170h-340zM585 170v-170h340v170h-340z" />
<glyph unicode="&#xf05f;" d="M809 850q-25 0 -47 -11q-35 -15 -53 -50.5t-14 -75.5v-320q-6 5 -55.5 55t-77.5 74q-38 25 -83 15.5t-73 -44.5l-101 -100q0 31 0.5 176.5t-0.5 176.5q-4 42 -36.5 72.5t-74.5 30.5q-51 4 -87.5 -37t-30.5 -92v-307.5v-307.5q1 -15 6.5 -30t14.5 -26.5t21 -21.5t26 -16 t28.5 -9t30 -1.5t29.5 7.5q15 7 30 18.5t25 22t24.5 26t24.5 23.5q27 27 81.5 82t82.5 82q21 -20 106 -105l131 -131q28 -24 66 -25.5t70.5 19t44.5 55.5q5 20 6.5 42.5t0.5 51.5t0 43v267.5t-1 266.5q-3 44 -37.5 74t-77.5 30zM193 783q14 1 26 -8.5t17 -23t2 -28.5 t-15 -24q-16 -13 -34.5 -12.5t-33.5 15t-13 34.5q0 19 14.5 33.5t34.5 13.5h2zM812 783q15 1 26.5 -8.5t16.5 -23t2 -28.5t-14 -24q-16 -13 -35 -12.5t-33.5 15t-13.5 34.5q0 19 15 33.5t34 13.5h2zM502 474q17 0 30.5 -12.5t16 -29t-6.5 -32.5t-27 -21.5t-35.5 2.5 t-23.5 25q-11 23 4 46t40 22h2zM812 164q28 0 41.5 -28t-4.5 -50q-17 -24 -48 -18.5t-38 33.5q-4 11 -1.5 22.5t9 20.5t17 14.5t22.5 5.5h2zM193 164q12 0 22 -6t15.5 -16.5t7.5 -21.5t-2 -22.5t-14 -18.5q-22 -22 -52.5 -7t-26.5 46q0 12 6.5 23t17.5 17t24 6h2z" />
<glyph unicode="&#xf060;" d="M500 821q-116 0 -213.5 -57t-154.5 -155t-57 -213q0 -134 75.5 -242t197.5 -155v1q86 232 98 249q-4 1 -11 3.5t-23.5 15t-29.5 31t-23 54t-10 81.5q1 33 8.5 64.5t18.5 55t24.5 44.5t26.5 35.5t24.5 25t18 15l6.5 4.5q-1 -5 -1.5 -13.5t1 -32.5t8 -44.5t24.5 -43.5 t45 -36q4 -1 10.5 -3.5t22.5 -12.5t28.5 -22.5t22.5 -35t10 -49.5q-1 -19 -5 -36.5t-9 -30t-13.5 -23.5t-16 -17.5t-17.5 -13t-16.5 -9.5t-14.5 -7q6 -10 97 -248q122 46 197.5 154t75.5 242q0 69 -21.5 134t-61 117t-91.5 91.5t-117 61t-134 21.5z" />
<glyph unicode="&#xf061;" d="M500 849q-115 0 -213 -57t-155 -155t-57 -213q0 -108 50.5 -202t138.5 -152.5t194 -68.5q0 61 -16.5 120t-42.5 105.5t-47 76t-42 52.5q-2 3 -4.5 7t-6 16.5t2.5 23.5l79 200q1 4 4.5 10t15.5 16t27 10h144q15 0 26.5 -9t16.5 -18l4 -9l79 -200q4 -13 2.5 -23.5 t-6.5 -16.5l-4 -7q-21 -23 -42 -52.5t-47 -76t-42.5 -105.5t-16.5 -120q79 8 150 44.5t122 92t81 130.5t30 156q0 115 -57 213t-155 155t-213 57zM500 491q-28 0 -47.5 -19.5t-19.5 -47.5q0 -24 15 -42.5t38 -23.5v-359h3.5h3.5h3h4h14v359q23 5 38 23.5t15 42.5 q0 18 -9 33.5t-24.5 24.5t-33.5 9z" />
<glyph unicode="&#xf062;" d="M224 849q-18 0 -35 -5.5t-31 -16t-24 -24t-15.5 -31t-5.5 -35.5v-447q0 -46 32.5 -78.5t78.5 -32.5h333q0 -36 -18 -67.5t-43 -51t-51 -34.5t-42 -21t-18 -6q6 0 16.5 0.5t41.5 4t59.5 9.5t65 19.5t65 32t51.5 48t31 66.5h61q30 0 56 14.5t40.5 40.5t14.5 56v447 q0 47 -32.5 79.5t-78.5 32.5h-552zM387 759l4 -1q5 -8 0.5 -12t-11.5 -21.5t-6 -39.5v-11t0.5 -10t2.5 -7.5t6 -7t11 -3.5t18 -2q13 0 23.5 13t30.5 13q14 0 22 -7t11 -18q7 25 33 25q19 0 29.5 -13t24.5 -13q10 0 17.5 2t11.5 3.5t6 7t2.5 7.5t0.5 10v11q1 17 -3.5 31.5 t-9 20.5t-7 12.5t2.5 8.5q9 9 39 -29q24 -30 25 -47q0 -8 0.5 -16.5t-1.5 -18.5t-5.5 -18.5t-11 -17t-17.5 -14.5q18 -19 30 -43t14 -38l3 -15l-73 1q0 3 -2 8t-9.5 18t-17.5 22.5t-30 16.5t-45 6q-65 -3 -82 -22t-17 -90q0 -66 26.5 -95.5t76.5 -31.5q27 -1 46.5 4 t27.5 12.5t12 15.5t3 14v5l-46 -2l-25 68h156q0 -25 -4 -49t-16.5 -50t-32 -45t-52.5 -30.5t-75.5 -9.5t-75.5 16.5t-52.5 35.5t-32 48.5t-17.5 52t-5 50.5q-1 85 41 127q-17 9 -25.5 27t-9 28.5t-0.5 29.5q0 23 23 50t37 27z" />
<glyph unicode="&#xf063;" d="M300 847q-15 0 -39.5 -21.5t-44 -53.5t-19.5 -58v-24.5t1.5 -25t5 -28.5t10 -25t18 -25.5t26.5 -19.5q-74 -72 -71 -218q0 -31 4 -61.5t14.5 -65t25.5 -64.5t40 -58.5t57 -49.5t76.5 -35t97.5 -17q74 -3 131 16.5t90 52.5t54.5 78t28.5 86.5t7 84.5h-269l44 -118l79 4 v-5.5t-1.5 -13t-6 -18t-15.5 -19t-26.5 -17.5t-42.5 -11.5t-62 -2.5q-86 3 -131.5 53.5t-45.5 165.5q0 43 2 69.5t9 49.5t17.5 35t31 21t46 12.5t65.5 5.5q42 1 76 -11t52.5 -30t31 -37t15.5 -32l4 -13l125 -2q0 3 -1 10t-6.5 27t-14 39t-24 44t-35.5 45q22 13 36.5 32 t18.5 39t6 40.5t0 36.5q-1 20 -24.5 55.5t-50 59.5t-36.5 15q-8 -3 -3.5 -14.5t12.5 -21.5t15 -35t6 -55q-1 -5 -1 -15.5t-0.5 -15.5t-2 -12.5t-5.5 -11t-11 -8t-18.5 -6t-27.5 -1.5q-12 0 -20.5 3.5t-12.5 8.5t-9 11t-10 10.5t-15.5 8t-25.5 3.5q-45 0 -57 -43l-4 10t-5 10 t-7.5 9t-10.5 7.5t-13.5 5t-16.5 1.5q-18 0 -29.5 -4.5t-17 -11t-10.5 -13.5t-14 -11.5t-22.5 -4.5t-24 1.5t-17.5 4t-12 7t-7 8t-3.5 10.5t-1.5 11.5v13.5v14q-1 25 3.5 46t11 32t12 22t7 15t-4.5 11q-3 3 -7 3z" />
<glyph unicode="&#xf080;" d="M499 798q-166 0 -280 -117q-58 -58 -88.5 -131t-30.5 -152q0 -80 30 -152.5t87.5 -130t130 -87.5t152 -30t153.5 30.5t133 88.5q56 55 85 127t29 154q0 81 -29.5 153.5t-85.5 128.5q-118 118 -286 118zM501 725q135 0 232 -96q46 -47 70.5 -106t24.5 -125 q0 -138 -94 -230q-48 -47 -108.5 -72t-124.5 -25q-65 0 -124.5 24.5t-106.5 71.5t-72.5 106.5t-25.5 124.5t25.5 124.5t72.5 107.5q94 95 231 95zM389 522q-50 0 -83.5 -33.5t-33.5 -90.5q0 -59 33 -92t86 -33q34 0 62 17t43 46l-49 25q-14 -34 -49 -34q-27 0 -40.5 19 t-13.5 52q0 70 54 70q11 0 23.5 -7t20.5 -25l54 28q-32 58 -107 58zM621 522q-51 0 -84 -33.5t-33 -90.5q0 -59 32.5 -92t86.5 -33q33 0 60.5 17t44.5 46l-50 25q-14 -34 -49 -34q-27 0 -40.5 19t-13.5 52q0 70 54 70q11 0 23.5 -7t21.5 -25l52 28q-31 58 -105 58z" />
<glyph unicode="&#xf081;" d="M499 796q-165 0 -281 -116q-118 -120 -118 -284t118 -282q119 -118 281 -118q165 0 287 119q114 112 114 281q0 168 -116 284t-285 116zM501 724q135 0 231 -96t96 -232q0 -139 -94 -229q-100 -98 -233 -98q-135 0 -232 97t-97 230q0 132 98 232q94 96 231 96zM500 654 q-56 0 -56 -56t56 -56t56 56t-56 56zM418 521q-11 0 -18.5 -7.5t-7.5 -18.5v-163h46v-195h124v195h46v163q0 11 -8 18.5t-18 7.5h-164z" />
<glyph unicode="&#xf082;" d="M499 796q-165 0 -281 -116q-118 -120 -118 -284t118 -282t281 -118q165 0 287 119q114 112 114 280.5t-116 284.5t-285 116zM500.5 724q136.5 0 231.5 -96q96 -94 96 -232q0 -44 -10 -86l-205 92l-64 28l-35 16l-51 23q-4 5 -4 10q0 17 15 24t33 7q35 0 69 -23l52 53 q-45 34 -100 37v62h-47v-62q-37 -2 -64.5 -21t-37.5 -50l-153 68q20 30 44 54q94 96 230.5 96zM190 504l204 -92l64 -28l47 -21l39 -16q10 -10 10 -25q0 -21 -14.5 -30.5t-35.5 -9.5q-50 0 -89 37l-55 -56q55 -47 121 -48v-61h47v61q41 4 71.5 28t38.5 61l151 -67 q-20 -36 -55 -70q-98 -98 -233 -98q-134 0 -232 97q-97 97 -97 230q0 58 18 108z" />
<glyph unicode="&#xf083;" d="M500 796q-167 0 -282 -116q-118 -120 -118 -284t118 -282t282 -118q165 0 286 119q114 113 114 281t-116 284t-284 116zM500.5 724q136.5 0 231.5 -96q96 -95 96 -232q0 -45 -10 -85l-220 97h6v48h-113l-46 20q6 14 14 23q29 36 82 36q37 0 75 -16l18 77q-45 20 -100 20 q-94 0 -155 -69q-11 -13 -22 -32l-132 58q19 29 45 55q94 96 230.5 96zM190 502l106 -46h-8v-48h38q0 -3 -0.5 -10t-0.5 -10v-12h-37v-47h44q8 -51 37 -87q28 -37 71 -56.5t92 -19.5q59 0 105 25l-16 74q-33 -17 -77 -17q-56 0 -86 34q-15 17 -22 47h146l206 -92 q-21 -38 -54 -70q-99 -98 -233.5 -98t-231.5 97t-97 230q0 56 18 106zM473 377l1 -1z" />
<glyph unicode="&#xf084;" d="M499 796q-166 0 -281 -116q-118 -120 -118 -284t118 -282t281 -118q166 0 287 119q114 113 114 281t-116 284t-285 116zM500.5 724q136.5 0 231.5 -96q96 -95 96 -232q0 -51 -13 -95l-163 72v29h-62l102 187h-107l-69 -155l-38 16l-64 139h-106l44 -82l-132 58 q21 33 50 63q94 96 230.5 96zM187 493l204 -91h-45v-63h94l9 -19v-30h-103v-62h103v-90h100v90h103v58l131 -59q-20 -32 -49 -60q-99 -98 -233.5 -98t-231.5 97t-97 230q0 51 15 97zM554 330l88 -40h-93v30z" />
<glyph unicode="&#xf085;" d="M499 796q-165 0 -281 -117q-118 -120 -118 -283q0 -165 118 -282q119 -118 281 -118q166 0 287 118q114 114 114 281.5t-116 283.5q-117 117 -285 117zM500.5 723.5q136.5 0.5 231.5 -96.5q96 -94 96 -231q0 -138 -94 -230q-100 -98 -233 -98q-135 0 -232 98 q-97 96 -97 230q0 132 98 231q94 96 230.5 96.5zM498 606q-69 0 -116.5 -40t-59.5 -114h-31l79 -79l79 79h-29q10 71 90 71q44 0 67.5 -33.5t23.5 -96.5q0 -61 -25.5 -97.5t-67.5 -36.5q-84 0 -88 73h-101q10 -75 59.5 -115.5t117.5 -40.5q92 0 150 61t58 153 q0 95 -56 155.5t-150 60.5z" />
<glyph unicode="&#xf086;" d="M499 797q-165 0 -281 -117q-118 -120 -118 -283q0 -165 118 -283q119 -117 281 -117q166 0 287 118q114 114 114 281.5t-116 283.5q-117 117 -285 117zM500.5 724q136.5 0 231.5 -96q96 -94 96 -231q0 -138 -94 -230q-100 -98 -233 -98q-135 0 -232 98q-97 96 -97 230 q0 132 98 231q94 96 230.5 96zM361 491v-69h290v69h-290zM361 362v-68h290v68h-290z" />
<glyph unicode="&#xf087;" d="M500 797q-109 0 -201 -53.5t-145.5 -145.5t-53.5 -201t53.5 -201t145.5 -145.5t201 -53.5t201 53.5t145.5 145.5t53.5 201t-53.5 201t-145.5 145.5t-201 53.5zM500 722q88 0 163 -43.5t118.5 -118.5t43.5 -163q0 -43 -11 -84l-1 1l-361 161q23 41 65 41q23 0 43 -13 q7 -5 12 -10l66 67q-52 44 -126 44q-110 0 -163 -83l-121 54q45 68 116.5 107.5t155.5 39.5zM193 504l127 -57q-5 -26 -5 -53q0 -29 5 -54.5t14.5 -44.5t22 -35.5t27.5 -27.5t31 -19.5t32.5 -13.5t32 -7t29.5 -2q62 0 113 35q8 6 15 12l-58 71l-5 -5q-23 -22 -54 -22 q-42 0 -64 35.5t-22 80.5l350 -156h1q-42 -77 -118 -123t-167 -46q-88 0 -163 43.5t-118.5 118.5t-43.5 163q0 55 18 107z" />
<glyph unicode="&#xf088;" d="M486 796q-166 0 -280 -116q-58 -58 -89 -132q-30 -73 -30 -152q0 -80 30 -152t87 -130q58 -57 130 -88q73 -30 152.5 -30t153.5 31t133 88q57 56 85 127q29 72 29 154t-29 154t-86 129q-117 117 -286 117zM488 724q136 0 232 -96q47 -47 71 -106.5t24 -125.5 q0 -137 -94 -229q-48 -48 -109 -72q-60 -25 -124 -25q-65 0 -124 24q-60 25 -107 71q-47 47 -73 107q-25 60 -25 124q0 65 25 124q26 60 73 108q94 96 231 96zM487 626q-47 0 -81 -20.5t-51.5 -55.5t-25 -73t-7.5 -81t7.5 -81t25 -73t51.5 -55.5t81 -20.5t81 20.5t51.5 55.5 t25 73t7.5 81q0 34 -4 64.5t-15.5 61.5t-29.5 53.5t-48 36.5t-68 14zM487 539q7 0 15 -2q17 -14 5 -35l-88 -161q-3 23 -3 55q0 143 71 143zM553 465q5 -28 5 -69q0 -143 -71 -143q-8 0 -15 1q-1 1 -2 1q-3 1 -4 1q-29 13 -11 39z" />
<glyph unicode="&#xf089;" d="M499 796q-165 0 -281 -116q-118 -120 -118 -284t118 -282q119 -118 281 -118q166 0 287 119q114 113 114 281t-116 284q-117 116 -285 116zM500.5 724q136.5 0 231.5 -97q96 -94 96 -231q0 -138 -94 -229q-100 -98 -233 -98q-135 0 -232 97q-97 96 -97 230q0 132 98 231 q94 97 230.5 97zM334 620q-8 -2 -14 -8t-6 -15v-294q0 -9 6.5 -15.5t15.5 -6.5h88v-87q0 -9 6 -15.5t16 -6.5h218q9 0 15.5 6.5t6.5 15.5v294q0 9 -6.5 15.5t-15.5 6.5h-88v87q0 10 -6 16.5t-16 6.5h-218h-2zM358 575h175v-65h-87h-3q-8 -1 -13.5 -7t-5.5 -15v-163h-66v250z M467 467h175v-251h-175v251z" />
<glyph unicode="&#xf08a;" d="M499 796q-165 0 -281 -116q-118 -120 -118 -284t118 -282q119 -118 281 -118q166 0 287 119q114 113 114 281t-116 284q-117 116 -285 116zM500.5 724q136.5 0 231.5 -97q96 -94 96 -231q0 -138 -94 -229q-100 -98 -233 -98q-135 0 -232 97q-97 96 -97 230q0 132 98 231 q94 97 230.5 97zM437 622l-108 -47v-113v-1l-95 -40v-103l102 -44l103 43l7 -3l210 -87l5 -1l4 1l97 42l7 3v113l-8 4l-79 33v99zM464 406l183 -75v-3h1v-71l-1 1v-1l-183 76v73zM665 402l59 -25l-64 -27l-58 25zM744 358v-69l-71 -31v70z" />
<glyph unicode="&#xf08b;" d="M100 798v-174h101q9 22 32 22q24 0 32 -23q21 -2 39.5 -11.5t31.5 -24.5t21 -34.5t8 -40.5q0 -46 -33 -79t-79 -33h-153v-402h800v800h-800zM100 598v-171h153q35 0 60 24.5t25 60.5q0 32 -21 56.5t-52 28.5q-10 -21 -32 -21q-23 0 -32 22h-101z" />
<glyph unicode="&#xf08c;" d="M-6 796l506 -800l506 800h-361v-97q21 -8 21 -30q0 -14 -10 -23.5t-24 -9.5q-9 0 -16.5 4.5t-11.5 12t-4 16.5q0 22 20 30v97h-230v-97q21 -8 21 -30q0 -14 -10 -23.5t-23.5 -9.5t-23 9.5t-9.5 23.5q0 22 20 30v97h-371z" />
<glyph unicode="&#xf08d;" d="M500 798q-109 0 -201 -53.5t-145.5 -146t-53.5 -201t53.5 -200.5t145.5 -145.5t201 -53.5t201 53.5t145.5 145.5t53.5 201v4h-203q-44 0 -75.5 31.5t-31.5 75.5q0 41 27.5 71.5t67.5 35.5q8 21 31 21t32 -21h87q-54 84 -142.5 133t-192.5 49zM748 591q-9 -21 -32 -21 q-21 0 -30 20q-30 -4 -50.5 -27t-20.5 -54q0 -22 11 -41t30 -29.5t41 -10.5h202q-6 87 -49 163h-102z" />
<glyph unicode="&#xf08e;" d="M442 848q-20 -1 -35.5 -15t-17.5 -33q-3 -23 9 -53q12 -29 11 -40q-5 -96 -11 -134q-7 12 -26 45.5t-32 49.5q-20 26 -44 28q-13 1 -25 -4t-20.5 -15.5t-10.5 -23.5t12 -47q6 -16 23.5 -65t30.5 -74q2 -5 7.5 -14.5t8.5 -16t6.5 -15t4.5 -16.5q6 -25 13 -73.5t8 -54.5 q8 -47 13 -61q3 -9 9.5 -19l13 -20t9.5 -19q4 -9 11 -42q22 -106 25 -118q34 6 76 14t86 16.5t76 14.5q71 15 85 20q-2 24 -15 80t-11 87q1 20 10.5 55t10.5 40l3.5 14t3.5 17t0 14q-3 14 -18 36t-18 27q-5 9 -5 43q-1 36 8 130.5t3 145.5q-4 34 -12 50q-10 20 -30 26 q-31 10 -54 -11q-18 -16 -26 -50q-6 -22 -11.5 -64.5t-9.5 -61.5q-3 7 -8.5 18.5t-10.5 21.5t-8 19q-7 18 -13.5 59.5t-16.5 61.5q-13 27 -51 26q-7 -1 -20 0t-17 1zM443 825h2q4 -1 6 -1h5t12 -0.5t12 -0.5q6 0 12 -1q2 0 5 -1q12 -3 19 -13q2 -3 3 -5l2 -4q1 -5 2 -7 q2 -7 4 -15q1 -9 3 -22q8 -55 16 -74q8 -18 12 -26q8 -19 15 -33q3 -6 7 -13q5 -7 8 -12q3 -6 8 -12l4 -6q2 13 4 29q9 82 10 86q1 8 3.5 26t5 31.5t7.5 24.5q4 11 9 17l2 2l2 2l1 1q2 2 4 3q1 1 2 1q3 2 5 2q5 2 10 2q2 0 3 1q5 0 10 -1q4 -1 7 -1q2 -1 3 -2q10 -3 17 -11 q2 -2 3.5 -4.5t3 -5.5l2.5 -5q4 -11 6 -24q0 -3 1 -6v-7q1 -10 1 -21v-15q0 -19 -1 -42q-1 -14 -2 -29q-2 -23 -4 -45q0 -11 -1 -23q-1 -14 -2 -22q-3 -49 -3 -90v-5v-4q0 -4 1 -9q2 -9 6 -16q3 -5 13.5 -20t13.5 -25q2 -3 2 -7q1 -3 1 -5v-4v-8q-1 -13 -4 -29q-1 -5 -6 -25 q-1 -7 -5 -20t-5 -19q-2 -5 -2 -10q-4 -17 -3 -30q0 -17 4 -39q1 -6 2 -9q1 -7 6 -28q1 -4 3 -10q2 -11 4 -19q2 -10 3 -19q1 -6 1 -9q1 -10 0 -20l-2 4q-2 2 -2 3q-3 4 -4 8q-3 4 -4 7q0 2 -1 4v1q0 2 -1 4q-1 7 -3 14q-1 8 -4.5 23t-4.5 22q-3 16 -6 30q0 4 -1 7 q-2 11 -3 23l-14 -4q-9 -2 -14 -3q15 18 18 22t5 6q1 3 3 6q4 7 6 13q4 13 8 29q4 13 8 30q1 7 2 10q0 2 1 5q1 6 1 11q1 5 1 10v5t-1 3q0 3 -0.5 6t-1.5 5.5t-2 5.5q-4 9 -14 22q-2 3 -5.5 8t-6.5 8q-2 3 -6 8q-15 18 -34 35l-7 7q-2 1 -4 3q-11 7 -22 11q-7 2 -17 3 q-4 1 -52 2q-1 -15 -1 -19q0 -1 -1 -3v-3l-2 -6t-3 -6t-4 -5t-5 -4q-1 0 -2 -1l-4 -2q-8 -4 -16 -6q-5 -1 -10 -1q-2 0 -5 -1h-10q-9 -1 -10 -1h-5h-5q-5 -1 -9 -1q4 -5 10 -10q3 -2 5 -4q13 -9 29 -17q7 -3 13 -5t13 -4l6 -2q10 -3 20 -4q2 -1 3 -1h7h5l10 2q2 0 4 1 q5 2 11.5 4.5t11.5 5t11.5 5.5t11.5 4q-3 -3 -5 -6q-9 -10 -23 -19q-5 -3 -11 -6q-4 -3 -14 -8q2 -5 3 -7q3 -7 6 -12q1 -2 2 -3l1 -3q1 -1 2 -3t3 -3q0 -1 1.5 -2.5l2.5 -2.5q3 -3 5.5 -5t6.5 -3q2 -2 4 -2q0 -1 2 -1q0 -1 1 -1h1q2 -1 4 -1q7 -2 17 -2h4q7 1 18.5 2.5 t16.5 2.5q-5 -4 -9 -7q-8 -5 -15 -8q-2 -1 -5 -2q-5 -1 -9 -1q-1 -1 -3 0q-3 -1 -7 0q-3 0 -4.5 0.5t-3.5 0.5q-4 2 -14 5l-0.5 0.5t-1.5 0.5q-5 2 -9 3t-7 2q-4 1 -7 1h-4q-8 -2 -17 -8q-2 -2 -15 -12q-6 -4 -10 -7q3 9 9 19q2 4 6 11t5 8.5t2 3.5v4q1 5 -2 12q-1 2 -6 10 q-1 2 -1.5 2.5t-1.5 2.5l-2 2q-2 1 -4 3q-5 3 -28 9q-15 4 -25 8q-6 3 -12 5q-14 8 -23 19q-1 2 -3 4q-1 3 -2 4q-1 3 -2 5q0 1 -1 4t-2 4q-1 5 -1 10v4v10q0 4 1 9q1 3 1 5q1 2 1 4q1 2 2 5q0 2 1 4l0.5 1l1 2l1.5 3q2 4 3.5 6t3.5 4l2 2q2 1 5 2q4 1 8 1h9q3 0 8.5 -0.5 t8.5 -0.5q1 0 5 -0.5t6 -0.5q5 0 11.5 0.5t16.5 1t19 0.5h16h12h5q21 -3 23 -3q5 -1 8 -1l4 -1t7 -2q2 -1 3 -1l4 -2q1 -1 3 -2q4 -2 7 -4q7 -6 18 -16l3 -3t3.5 -3t3.5 -3l3.5 -3.5l3.5 -3.5q2 13 3 30q0 8 0.5 18t1 21.5t0.5 18.5q1 9 1 15q1 7 1 14l2 22q1 19 2 42 q2 23 3 63q0 5 0.5 13.5t0.5 15.5t1 14q0 19 -3 31q-1 4 -2 7q-3 9 -8 16q-2 3 -5 5l-2 2l-1 1q-1 0 -2 1q-4 2 -9 3h-8q-18 0 -26 -14q-1 -3 -3 -7q0 -1 -1 -3q-2 -5 -4 -11q-2 -8 -6 -37q-10 -92 -13 -141v-12q0 -2 -1 -12v-11v-12l20 -4q9 -2 19 -4q-6 -3 -12 -5l-8 -2 q-1 0 -5 -1l-8 -2q-9 -1 -17 -2t-18 -1q3 4 7 9q3 4 8 10q-1 1 -8 18q-4 10 -8 17q-3 6 -7 13q-2 4 -7 13q-10 16 -14 25q-13 29 -19 42q-2 -21 -2 -66q0 -16 -1 -22v-13v-26v-13q6 -2 12 -5q4 -1 6 -2q6 -2 7 -3q-16 -6 -21 -8l-10 -2q-3 -1 -5 -1h-1h-5t-4 1h-2h-2 q-3 1 -4 2q-4 1 -8 4l-11 6q5 1 8 1q6 1 14 1q5 1 8 1q4 36 1 69q-45 13 -64 24q7 0 16 -1l16 -2t17 -2q6 -2 16 -3q1 9 2 19q0 6 1 10v19q0 13 -1 29q-14 4 -33 6q-1 1 -14 2.5t-19 2.5q22 12 68 5q-1 25 -6 55q-1 8 -3 18q-2 13 -2 14q-1 2 -1 4q-3 10 -7 17q-1 1 -1.5 2 t-2 2t-2 1.5t-2 1.5t-2.5 1q-2 1 -5 2q-1 0 -2.5 0.5t-2.5 0.5q-6 0 -11 -2q-1 -1 -2 -1q-2 -2 -4 -3l-3 -3l-4 -4q0 -2 -1 -3q-3 -5 -5 -12l-2 -4q-2 -5 -3 -11q-3 -13 -6 -49q-1 -10 -2 -22q-1 -3 -3 -23v-1q-3 -21 -4 -33v-11q-1 -16 -2 -33v-1q-2 -32 -2 -35 q-1 -19 -1 -34q-1 -19 -1 -34q14 3 27 5q-2 -3 -5 -7l-6 -6q-7 -8 -13 -12q-7 -4 -17 -7q-6 -2 -18 -4q3 5 7 10l8 10q-4 6 -11 20q-4 8 -11.5 22.5t-9.5 17.5q-26 49 -43 79q-1 2 -6 9q-4 6 -6 10q-1 2 -4 6q0 1 -0.5 1.5t-1.5 0.5q-1 2 -3 4l-2 2q-6 6 -12 7q-1 1 -2 1 q-3 0 -5.5 -0.5t-4.5 -1t-4.5 -1.5t-4.5 -2t-4 -3q-1 0 -2 -1l-2 -2l-2 -4l-2 -4q0 -3 1 -5q0 -5 1 -11q1 -5 3 -10q2 -7 4 -15q2 -4 5 -12q0 -1 0.5 -1.5t0.5 -1.5q10 -26 12 -29q2 -7 4 -13q2 -4 4 -9.5t3.5 -9.5t3.5 -9.5t3 -9.5q5 -15 10 -26q1 -2 2 -6q1 0 1 -1v-1 l4 -8l1 -2l3 -6t2 -3.5t1.5 -3t1.5 -3t1.5 -3t1.5 -3.5l23 -46q4 0 10 -1q14 0 30 -2q-15 -6 -19 -8q-11 -5 -19 -7q2 -16 8 -53q4 -25 5 -39q1 -8 2 -14q5 -38 14 -55q2 -5 4 -8l3 -4.5t3 -3.5q2 -3 5 -5.5t6 -5.5q2 -1 41 -23q-7 0 -14 -1h-14q2 -13 5 -29q2 -8 3 -15 q1 -2 1.5 -4.5l1 -5t1.5 -4.5q3 -17 6 -29q5 -21 6 -29q1 -4 1.5 -8.5t0.5 -9.5v-4q-1 -6 -2 -14q-9 23 -19 77q-3 18 -6 29q-3 10 -5 19q-1 4 -3 9l-2 5q0 2 -1 4q0 1 -2 5l-2 4q-3 6 -7 13v1q-3 3 -9 12q-3 6 -4 6q-7 12 -11 20q-2 5 -4 11q-2 9 -4 23q-1 2 -1.5 6t-0.5 5 q-2 11 -5 35q-1 8 -2 17q-4 32 -8 52l-2 8q-2 10 -4 17q-1 4 -3 9q-3 8 -7 17q-2 5 -5 12t-9 16l-4 8q-4 8 -7 16q-4 7 -7 16q-4 10 -9 25q-2 3 -8.5 21.5t-9.5 28.5q-3 8 -7 16q-1 4 -3 8t-3.5 8.5t-3.5 7.5q-2 7 -4 12q-2 4 -2 6l-2 6t-1 4v4q-1 7 0 13q0 1 1 3v1q0 2 1 3 l1 2q1 1 1 2l2 2t2.5 2t2.5 2l2 2l4 2l2 1q2 1 5 2q4 1 8.5 2t9.5 0h5q8 -2 14 -7l1 -2q3 -2 3 -3q1 0 2 -1l6 -9t13 -21q2 -4 6 -10.5t6 -10t4 -6.5l8 -14q2 -3 4 -7q5 -9 7 -14q1 -2 8 -14l7 -14q13 -26 23 -42q1 11 3 80q0 16 1 27q1 14 3 43q2 27 3 42v12q0 1 -0.5 3.5 t-0.5 4.5q-1 3 -2 7q-1 2 -1 4q-6 13 -7 17q-3 9 -5 17q-2 7 -3 13q-1 5 -1 9q-1 7 0 14v3h1v3l0.5 0.5l0.5 0.5v3q1 1 2 3t2 3v0q0 1 1 2l2 2l2 2q0 1 0.5 1h0.5q0 1 1 1l1 1l2 2v0q1 1 3 1v1q1 0 2.5 1t2.5 1h1q2 1 3 1t3 1h3.5h1.5zM453 817q-28 0 -34 -21q-5 -23 13 -58 q15 60 24 79h-3zM646 689h6h1h5h1t2 -1h5q1 0 4 -1h2q4 -1 7 -2q6 -2 13 -4l6 -3q-11 -2 -19 -3q-2 0 -5 -1q-7 0 -14 2q-5 1 -10 3q-3 1 -7 3q-2 2 -9 6q3 1 6 1h6zM346 601q-2 -2 -4 -6q-4 -5 -7 -9q-1 -1 -2 -3l-6 -4l-6 -4q-3 -1 -7 -3q-2 0 -4 -1q-2 0 -3 -1 q-2 0 -5 -1h-2q2 2 4 5l5 5l3 3t2.5 2t2.5 2q2 2 3 2q3 3 6 4q9 5 20 9zM658 596h4q3 0 5 -1q8 -1 19 -8q1 0 6 -4q-16 -1 -31 2q-9 1 -19 4q-5 1 -11 4q4 0 9 1t10 1q2 1 3 1h5zM377 539q0 -1 -2 -3q-1 0 -2 -1.5l-1 -1.5q-3 -3 -6 -5q-1 -1 -3 -2q-3 -3 -6 -5 q-13 -9 -30 -16q15 20 26 27q5 2 12 4q2 1 6 1q1 1 3 1t3 1zM472 481q-7 -22 -12 -41q5 0 17.5 -1t19.5 -2h9q5 0 9.5 0.5t8.5 1.5t9 3q4 1 8 5q0 1 1 2q2 3 4 9q1 1 1 2q1 2 1.5 4.5l1 5t1.5 4.5q-33 4 -59 6q-9 1 -20 1z" />
<glyph unicode="&#xf08f;" d="M496 847q-143 -1 -258 -90t-150 -232q-28 -112 3.5 -221t112.5 -187.5t193 -106.5t221 3.5t187.5 112.5t106.5 193q23 85 8 168.5t-55.5 153.5t-109 121.5t-152.5 71.5q-53 14 -107 13zM482 699l47 -12l-19 -75q28 -6 38 -8l18 74l47 -11l-19 -77q104 -36 93 -107 q-8 -57 -59 -69q69 -36 43 -113q-10 -26 -25.5 -42t-37.5 -22t-46 -5.5t-56 6.5l-19 -77l-47 12l19 76q-22 5 -37 9l-19 -76l-47 11l20 78q-15 4 -34 8l-60 15l23 54q2 -1 5.5 -1.5t11 -2.5t12.5 -3.5t5 -0.5q15 -4 21 11l31 122q1 0 2 -1h3q-3 1 -5 1l21 87q2 22 -21 28 l-8.5 2t-17.5 4l-8 2l12 50l65 -16h-1q11 -3 30 -8zM498 557l-23 -93q2 0 9 -2t12 -3.5t13.5 -3t15 -2.5t15 -1.5t15 0.5t13.5 3t12 5.5t9 9.5t6 14q4 8 1.5 15t-4 12.5t-7.5 11t-10.5 9t-13 7t-14 6t-14 4.5t-14 3.5t-12.5 3t-9 1.5zM463 417l-26 -102q2 -1 12.5 -4t17 -4 t18.5 -3.5t20.5 -3t19.5 -1t19 1.5t16 5.5t13 10.5t8 16q3 13 0 23.5t-12 18.5t-18 14t-24.5 11t-23.5 7.5t-23.5 6t-16.5 3.5z" />
<glyph unicode="&#xf090;" d="M351 847v-129h-50h-108v-84q4 0 10 0.5t18.5 0.5h20.5t8 -1q39 0 45 -34v-147h8h-8v-206q-4 -26 -29 -26h-57l-16 -93h102q11 0 31 -0.5t25 -0.5v-130h78v129q31 -1 63 -1v-128h78v130q53 3 91.5 12t71 27t51 49t22.5 77q6 71 -23.5 109t-89.5 53q77 39 68 132 q-4 33 -19.5 58t-42 40t-57.5 23t-72 11v129h-78v-125q-23 0 -63 -1v126h-78zM471 630q144 0 143 -80q0 -14 -4.5 -25.5t-13.5 -19.5t-19 -14t-25 -9.5t-26 -5.5t-28 -3t-25.5 -1h-23.5h-18v157h16q16 0 24 1zM479 394q172 1 172 -87q0 -16 -5.5 -28.5t-16.5 -21.5 t-22.5 -15.5t-30 -10.5t-31.5 -6.5t-33.5 -3t-30.5 -1t-28.5 0t-21.5 0.5v172q5 0 21.5 0.5t26.5 0.5z" />
<glyph unicode="&#xf099;" d="M495 786q-59 0 -114 -19.5t-100.5 -58.5t-67.5 -92q-11 -24 -15 -50q-29 30 -66 30q-44 0 -74.5 -40t-30.5 -96q0 -28 8.5 -53.5t22.5 -44t33 -29t41 -10.5q18 0 35 8q-29 -77 2 -145q31 -73 103 -117.5t158 -56.5q102 -14 199.5 12.5t161.5 97.5q39 42 51 98.5t-8 109.5 q17 -7 34 -7q29 0 53 18t38 49.5t14 69.5q0 56 -30.5 96t-74.5 40q-37 0 -66 -31q-13 76 -64 127q-45 46 -107.5 70t-130.5 24h-5zM622 681q18 0 36 -6q57 -17 85 -74.5t18 -118.5q2 -13 -4.5 -30t-12.5 -29t-3.5 -25t20.5 -21q47 -47 44.5 -116.5t-46.5 -117.5 q-97 -104 -294 -93q-79 5 -147 36.5t-102 93.5q-28 47 -20.5 107.5t50.5 95.5q14 8 15 20t-6 24t-13 27.5t-3 27.5q-10 61 18.5 119t85.5 75q15 4 29 5q40 2 75 -22t53 -62q16 36 50 59.5t72 24.5zM415.5 502q-17.5 0 -29.5 -15.5t-12 -37.5q0 -14 5.5 -26t15 -19.5 t21.5 -7.5q17 0 29.5 15.5t12.5 37.5t-12.5 37.5t-30 15.5zM584.5 502q-17.5 0 -30 -15.5t-12.5 -37.5t12.5 -37.5t30 -15.5t29.5 15.5t12 37.5t-12 37.5t-29.5 15.5zM721 353q-2 -1 -4 -1q-32 -13 -68 -21t-73 -12t-76 -4t-76 4t-73 12t-68 21h-4h-1q-10 0 -10 -10 q0 -3 2 -6t5 -4q102 -39 225 -39t224 39q8 2 8 10q0 4 -3 7.5t-8 3.5z" />
</font>
</defs>
</svg>
